<?xml version="1.0" standalone="no"?>
<!DOCTYPE svg PUBLIC "-//W3C//DTD SVG 1.1//EN" "../../../www.w3.org/Graphics/SVG/1.1/DTD/svg11.dtd" >
<svg xmlns="http://www.w3.org/2000/svg">
<metadata>
This is a custom SVG font generated by IcoMoon.
<iconset grid="16"></iconset>
</metadata>
<defs>
<font id="giteshenterprises" horiz-adv-x="512" >
<font-face units-per-em="512" ascent="480" descent="-32" />
<missing-glyph horiz-adv-x="512" />
<glyph class="hidden" unicode="&#xf000;" d="M0,480L 512 -32L0 -32 z" horiz-adv-x="0" />
<glyph unicode="&#xe000;" d="M 121.905,258.572l 239.153,0 L 361.082,297.826 L 121.905,297.826 L 121.905,258.572 z M 173.3,422.071l 135.485,0 
			l 90.624-158.866l 34.597,37.425L 341.48,480L 146.188,480 L 49.030,300.605l 34.548-37.425L 173.3,422.071z M 454.51,297.826L 454.51,258.572 l 39.253,0 L 493.763,297.826 L 454.51,297.826 z
			 M 33.134,297.826L-6.12,297.826 L-6.12,258.572 l 39.253,0 L 33.134,297.826 z M 50.883-32l 381.196,0 l 37.4,270.946L 11.654,238.946 L 50.883-32z M 342.406,206.251l 21.504,0 l0-75.678 l-21.504,0 
			L 342.406,206.251 z M 342.406,97.853l 21.504,0 l0-75.654 l-21.504,0 L 342.406,97.853 z M 287.256,206.251l 21.504,0 l0-75.678 l-21.504,0 L 287.256,206.251 z M 287.256,97.853l 21.504,0 l0-75.654 
			l-21.504,0 L 287.256,97.853 z M 232.131,206.251l 21.504,0 l0-75.678 L 232.131,130.572 L 232.131,206.251 z M 232.131,97.853l 21.504,0 l0-75.654 L 232.131,22.199 L 232.131,97.853 z M 177.030,206.251l 21.48,0 l0-75.678 l-21.48,0 
			L 177.030,206.251 z M 177.030,97.853l 21.48,0 l0-75.654 l-21.48,0 L 177.030,97.853 z M 121.905,206.251l 21.48,0 l0-75.678 l-21.48,0 L 121.905,206.251 z M 121.905,97.853l 21.48,0 l0-75.654 l-21.48,0 L 121.905,97.853 z" horiz-adv-x="487.619"  />
<glyph unicode="&#xe001;" d="M 359.701,252.331c 6.677-12.437, 22.208-17.067, 34.624-10.368
			c 12.459,6.656, 17.109,22.187, 10.411,34.603L 322.773,428.971c-6.699,12.437-22.187,17.131-34.645,10.432c-12.437-6.72-17.067-22.229-10.389-34.667
			L 359.701,252.331z M 486.016,272.683l-53.589,0.661c 6.869-22.869-3.733-47.957-25.941-58.496c-24.491-11.669-53.845-1.259-65.536,23.253L 323.627,274.56
			L 188.992,276.117l-18.197-36.053c-12.224-24.256-41.792-33.984-66.069-21.781c-21.952,11.072-31.936,36.373-24.555,59.072L 26.56,277.973
			c-14.869,0.171-27.051-11.712-27.2-26.603s 11.733-27.072, 26.603-27.243l 7.317-0.064l 41.493-173.355l 0.32-1.451c0,0, 0.341-41.152, 47.595-41.685
			c 84.907-0.981, 176.107-2.048, 261.035-3.008c 47.275-0.555, 48.512,40.576, 48.512,40.576l 0.405,1.451l 45.461,172.309l 7.317-0.064
			c 14.869-0.192, 27.072,11.733, 27.243,26.624C 512.789,260.309, 500.885,272.512, 486.016,272.683z M 151.509,58.411
			c-0.085-8.683-7.211-15.637-15.893-15.552c-8.704,0.128-15.701,7.211-15.573,15.893l 1.195,102.272c 0.085,8.683, 7.232,15.637, 15.915,15.552
			c 8.683-0.107, 15.616-7.232, 15.552-15.915L 151.509,58.411z M 230.187,57.515c-0.107-8.683-7.232-15.637-15.915-15.552
			c-8.683,0.128-15.659,7.253-15.552,15.915l 1.195,102.251c 0.107,8.683, 7.232,15.637, 15.915,15.552c 8.683-0.085, 15.659-7.211, 15.552-15.936
			L 230.187,57.515z M 308.864,56.597c-0.107-8.704-7.232-15.637-15.915-15.552c-8.704,0.107-15.637,7.232-15.552,15.915l 1.173,102.293
			c 0.107,8.683, 7.211,15.637, 15.915,15.531c 8.661-0.085, 15.637-7.211, 15.552-15.915L 308.864,56.597z M 387.499,55.68
			c-0.107-8.683-7.211-15.637-15.893-15.509c-8.683,0.064-15.659,7.168-15.552,15.872l 1.195,102.229c 0.107,8.725, 7.232,15.659, 15.915,15.552
			c 8.683-0.085, 15.616-7.189, 15.552-15.893L 387.499,55.68z M 117.525,245.099c 12.288-6.955, 27.904-2.667, 34.859,9.643l 85.483,150.464
			C 244.864,417.493, 240.555,433.088, 228.267,440.107c-12.267,6.955-27.883,2.645-34.859-9.643L 107.925,279.979C 100.949,267.691, 105.259,252.096, 117.525,245.099z"  />
<glyph unicode="&#xe002;" d="M 435.328,442.304c 3.627,3.627, 9.493,3.627, 13.12,0
			c 3.648-3.605, 3.648-9.493,0-13.141L 314.24,294.976l 16.64-16.661l 134.208,134.229c 3.627,3.605, 9.493,3.605, 13.12,0
			c 3.648-3.605, 3.648-9.515,0-13.141l-134.208-134.208l 20.587-20.587l 130.261,130.283c 21.76,21.76, 21.76,57.024,0,78.827l-5.248,5.227
			c-21.76,21.781-57.067,21.781-78.805,0L 280.533,328.683l 20.587-20.565L 435.328,442.304z M 492.779,86.869L 250.88,328.725
			c-1.899,1.92-3.925,3.627-5.973,5.248c 1.344,7.317, 2.091,14.827, 2.091,22.528C 246.997,424.704, 191.701,480, 123.499,480
			C 108.715,480, 94.549,477.376, 81.387,472.64l 72.747-72.747c 10.048-10.069, 10.048-26.368,0-36.416L 116.523,325.824c-10.048-10.048-26.368-10.048-36.395,0
			L 7.36,398.613C 2.624,385.451,0,371.285,0,356.501c0-68.224, 55.296-123.499, 123.499-123.499c 8,0, 15.829,0.789, 23.424,2.24
			c 1.536-1.941, 3.136-3.797, 4.928-5.589l 241.856-241.877c 25.664-25.643, 67.243-25.643, 92.907,0l 6.144,6.165
			C 518.4,19.627, 518.421,61.205, 492.779,86.869z M 443.285-1.024c-21.035,0-38.080,17.045-38.080,38.059c0,20.992, 17.067,38.059, 38.080,38.059
			c 20.992,0, 38.059-17.067, 38.059-38.059C 481.344,16.021, 464.299-1.024, 443.285-1.024z M 102.763,89.792L 67.072,89.792 l-59.371-97.493l 9.024-9.003
			l 5.013-4.992l 9.045-9.067l 97.451,59.392l0,35.691 l 75.456,75.435l-25.493,25.451L 102.763,89.792z"  />
<glyph unicode="&#xe003;" d="M 500.203,35.904l-118.443,109.781
			c-9.877,9.173-23.915,11.051-35.499,5.888l-19.563,18.133c 25.792,31.573, 41.28,71.915, 41.28,115.84c0,101.248-82.091,183.317-183.317,183.317
			S 1.344,386.773, 1.344,285.547c0-101.227, 82.091-183.317, 183.317-183.317c 47.424,0, 90.624,18.005, 123.179,47.552l 20.395-18.923
			c-3.371-11.52-0.384-24.448, 9.024-33.173l 118.443-109.803c 13.248-12.309, 33.984-11.52, 46.251,1.749C 514.219,2.88, 513.451,23.573, 500.203,35.904
			z M 184.661,156.053c-71.509,0-129.493,57.984-129.493,129.472c0,71.509, 57.984,129.493, 129.493,129.493c 71.531,0, 129.493-57.984, 129.493-129.493
			C 314.155,214.037, 256.192,156.053, 184.661,156.053z"  />
<glyph unicode="&#xe004;" d="M 223.717,402.365c 10.024,0, 18.136,8.084, 18.136,18.109
			c0,9.997-8.111,18.109-18.136,18.109c-9.997,0-18.109-8.084-18.109-18.109C 205.608,410.476, 213.747,402.365, 223.717,402.365z M 184.886,459.277
			c 5.74,0, 10.348,4.635, 10.348,10.348C 195.261,475.365, 190.626,480, 184.886,480c-5.686,0-10.294-4.635-10.294-10.348C 174.592,463.912, 179.227,459.277, 184.886,459.277z
			 M 183.161,159.084c-5.713,0-10.294-4.635-10.294-10.321s 4.608-10.321, 10.294-10.321s 10.348,4.635, 10.348,10.321S 188.874,159.084, 183.161,159.084z
			 M 157.292,360.947c 19.052,0, 34.52,15.441, 34.52,34.466c0,19.052-15.468,34.547-34.52,34.547S 122.799,414.518, 122.799,395.439
			C 122.799,376.414, 138.24,360.947, 157.292,360.947z M 372.224,3.894c-7.141,14.228-130.021,183.377-130.021,183.377L 242.203,303.306 l 8.488,0 
			c 8.542,0, 15.522,6.979, 15.522,15.522L 266.213,324.918 c0,8.569-6.952,15.549-15.522,15.549L 126.491,340.467 c-8.569,0-15.522-6.979-15.522-15.549l0-6.144 
			c0-8.515, 6.925-15.522, 15.522-15.522l 8.515,0 l0-116.035 c0,0-122.907-169.149-129.994-183.377c-22.339-36.864, 21.342-35.894, 21.342-35.894l 324.581,0 
			C 350.909-32, 394.536-32.97, 372.224,3.894z M 118.461,107.695l 54.353,73.701L 172.84,303.306 l 31.528,0 l0-75.533 C 202.644,231.033, 199.249,233.27, 195.261,233.27
			c-5.713,0-10.348-4.635-10.348-10.321S 189.548,212.574, 195.261,212.574c 3.961,0, 7.357,2.237, 9.108,5.524l0-36.702 l 54.299-73.701L 118.461,107.695 z" horiz-adv-x="377.263"  />
<glyph unicode="&#xe005;" d="M 255.403,479.467c-126.037,0-205.163-27.051-205.163-58.88l0-392.512 
			c0-31.829, 96.064-59.499, 202.069-59.499c 124.437,0, 209.451,27.669, 209.451,59.499L 461.76,420.587 C 461.781,452.416, 376.512,479.467, 255.403,479.467z M 89.173,53.717
			L 89.067,394.496C 94.699,390.976, 101.525,387.669, 109.44,384.619C 109.781,384.469, 109.995,384.427, 110.229,384.384c-0.427-0.555-0.768-1.92-0.533-5.035
			C 109.312,376.341, 109.099,373.291, 109.099,370.155c0-17.045, 11.051-33.131, 20.8-47.296c-4.16,6.059, 46.080-87.104, 97.536-98.709
			c 3.435-0.768, 3.051-3.797-0.597-4.629c-51.392-12.181-101.099-99.093-96.939-93.077c-9.771-14.187-20.8-47.317-20.8-47.317l 1.195-13.525
			L 89.173,53.717z M 259.861,8.149l-6.635,0 c-68.309,0-120.832,40.384-124.501,68.907c0,15.36, 24.043,51.285, 32.832,64.043
			c-3.733-5.397, 38.549,53.781, 84.821,64.747c-0.021,22.827, 1.152,36.608-1.92,37.312c-46.336,10.453-82.347,69.141-78.613,63.701
			C 157.077,319.595, 130.56,352.469, 130.56,367.829C 130.56,369.707, 130.645,371.541, 130.773,373.333C 129.536,377.323, 131.712,377.365, 131.712,377.365
			c 32.96-8.981, 76.267-15.68, 123.691-15.68c 49.429,0, 94.379,7.168, 127.787,16.853L 384.341,369.067c0-15.339-19.136-37.803-27.947-50.56
			c 3.861,5.632-41.323-71.424-88.107-76.779c-1.429-0.171-2.752-8.533-1.984-37.355c 46.763-5.909, 87.829-71.957, 83.968-66.347
			c 8.789-12.757, 34.069-45.632, 34.069-60.971C 364.715,31.957, 328.192,8.149, 259.861,8.149z M 422.677,55.851
			c-9.515,10.112-17.536,13.824-17.536,13.824s-1.835,10.133-1.835,11.883c0,17.045-12.245,25.771-20.8,44.864
			c 4.288-6.251-45.44,86.229-97.387,92.8c-1.792,0.213-2.133,3.84-0.533,4.011c 52.011,5.931, 102.229,105.877, 97.941,99.605
			c 9.749,14.187, 20.8,30.251, 20.8,47.296c-1.259,13.995-0.683,14.955-0.683,14.955c 7.957,3.157, 14.891,6.549, 20.629,10.176L 422.677,55.851z
			 M 288.213,81.003c-7.381-11.051-17.792-18.603-20.245-11.221c-1.216,3.712-1.685,4.608-1.813,4.587l0-0.917 c0,0-0.149,0.917,0,0.917
			l-0.619,126.037c0,0, 1.237,50.709, 1.237,60.117c 14.699,3.669, 41.088,11.627, 59.477,40.448c0,0-2.432,4.928-14.101,1.237
			c-11.669-3.669-22.677-19.627-30.677-18.389c-7.957,1.237-12.864,17.173-21.44,17.173c-8.597,0-14.123,18.411-25.771,18.411
			c-11.648,0-35.584,4.907-43.563,1.835C 182.72,318.165, 187.029,308.949, 193.771,304.064c 6.741-4.928, 28.203-38.059, 55.189-40.491
			c0,0-3.072-55.808-2.453-84.629l0-87.701 c0,0, 2.453-7.36-16.555-4.885c-19.008,2.453-22.677-6.741-30.080,0.619
			c-7.339,7.339-3.648,15.915-11.029,15.915c0,0-15.957,8.597-19.627,1.237c-3.669-7.381-6.144-18.389-12.885-18.389
			c-6.741,0-12.267-11.648-4.907-15.339c 7.36-3.669, 41.707-42.944, 103.019-42.944c0,0, 53.355-4.288, 100.587,41.707c0,0, 16.533,14.315-3.072,15.552
			C 332.373,85.909, 295.552,92.032, 288.213,81.003z"  />
<glyph unicode="&#xe006;" d="M 30.958,199.269c 55.899,0, 108.453-21.833, 147.95-61.559c 39.561-39.717, 61.349-92.626, 61.349-148.937l 86.144,0 
	c0,163.584-132.544,296.649-295.442,296.649L 30.958,199.269 z M 31.095,351.991c 199.232,0, 361.335-162.981, 361.335-363.328l 86.144,0 
	c0,247.863-200.75,449.481-447.479,449.481L 31.095,351.991 z M 150.226,48.85c0-32.942-26.725-59.666-59.666-59.666S 30.885,15.89, 30.885,48.85
	c0,32.96, 26.715,59.666, 59.657,59.666S 150.226,81.81, 150.226,48.85z"  />
<glyph unicode="&#xe007;" d="M 292.48,107.883l0,14.059 l-72.427,0 l0-14.059 c0,0, 1.835-21.077-21.931-21.077c0-7.467,0-7.467,0-7.467l 116.288,0 
			c0,0,0,0,0,7.467C 290.667,86.784, 292.48,107.883, 292.48,107.883z M 395.264,371.499L 117.227,371.499 c-8.235,0-14.912-6.677-14.912-14.912l0-217.643 
			c0-8.256, 6.677-14.933, 14.912-14.933l 278.059,0 c 8.256,0, 14.933,6.677, 14.933,14.933L 410.219,356.587 C 410.219,364.821, 403.52,371.499, 395.264,371.499z M 269.397,138.475
			c-1.493-2.283-3.669-5.184-6.336-5.205c-2.368-0.021-2.965,1.557-6.165,1.515c-3.2,0-3.861-1.515-6.251-1.515
			c-2.645,0-4.672,2.603-6.208,4.928c-4.245,6.485-4.715,14.101-2.091,18.176c 1.877,2.88, 4.821,4.523, 7.595,4.523
			c 2.795,0, 4.587-1.493, 6.891-1.493c 2.283,0, 3.648,1.493, 6.891,1.493c 2.475,0, 5.099-1.323, 6.933-3.605
			c-6.080-3.371-5.077-12.053, 1.088-14.4C 270.912,141.013, 270.485,140.117, 269.397,138.475z M 255.723,160.704
			c-0.384,2.133, 0.597,4.245, 1.792,5.696c 1.344,1.579, 3.584,2.859, 5.525,2.965c 0.32-2.176-0.555-4.352-1.771-5.845
			C 260.011,161.835, 257.835,160.661, 255.723,160.704z M 399.317,178.432L 113.195,178.432 L 113.195,355.989 l 286.123,0 L 399.317,178.432 zM 503.467,188.992l-62.272,0 c0,0-8.917,0.149-8.917-9.195l-0.043-111.232c0,0-0.789-9.195, 8.533-9.195l 63.083,0 
			c0,0, 8.661-0.149, 8.661,8.811l0,111.595 C 512.512,179.819, 512.811,188.992, 503.467,188.992z M 463.36,184.512l 17.92,0 l0-4.48 l-17.92,0 L 463.36,184.512 z
			 M 456.64,184.512c 1.28,0, 2.261-0.96, 2.261-2.24c0-1.237-1.003-2.219-2.261-2.219c-1.237,0-2.219,1.003-2.219,2.219
			C 454.443,183.552, 455.424,184.512, 456.64,184.512z M 472.32,68.309c-2.496,0-4.48,2.027-4.48,4.523c0,2.453, 1.984,4.48, 4.48,4.48
			c 2.432,0, 4.48-2.027, 4.48-4.48C 476.8,70.336, 474.752,68.309, 472.32,68.309z M 503.744,86.229l-62.891,0 L 440.853,175.573 l 62.891,0 L 503.744,86.229 zM 71.253,188.992L 8.981,188.992 c0,0-8.896,0.149-8.896-9.195l-0.064-111.232c0,0-0.832-9.195, 8.512-9.195l 63.104,0 
			c0,0, 8.661-0.149, 8.661,8.811l0,111.595 C 80.32,179.819, 80.597,188.992, 71.253,188.992z M 31.125,184.512l 17.899,0 l0-4.48 L 31.125,180.032 L 31.125,184.512 z
			 M 24.448,184.512c 1.237,0, 2.24-0.96, 2.24-2.24c0-1.237-1.024-2.219-2.24-2.219s-2.219,1.003-2.219,2.219
			C 22.229,183.552, 23.232,184.512, 24.448,184.512z M 40.085,68.309c-2.496,0-4.48,2.027-4.48,4.523c0,2.453, 2.005,4.48, 4.48,4.48
			c 2.475,0, 4.459-2.027, 4.459-4.48C 44.544,70.336, 42.56,68.309, 40.085,68.309z M 71.552,86.229l-62.933,0 L 8.619,175.573 l 62.933,0 L 71.552,86.229 z"  />
<glyph unicode="&#xe008;" d="M 307.046,373.837C 227.917,558.515, 3.046,515.456, 1.562,301.133
			c-0.845-117.709, 107.085-161.715, 178.918-208.768c 69.658-45.645, 119.245-108.109, 127.053-134.656c 6.63,26.061, 61.875,90.24, 126.362,135.91
			c 70.502,49.946, 179.738,91.085, 178.944,208.794C 611.354,517.248, 382.541,551.142, 307.046,373.837z" horiz-adv-x="614.4"  />
<glyph unicode="&#xe009;" d="M 65.676,96c0,10.124-8.169,18.292-18.292,18.292L 10.822,114.292 
			C 0.698,114.292,-7.471,106.1,-7.471,96c0-10.1, 8.169-18.269, 18.292-18.269l 36.561,0 C 57.507,77.708, 65.676,85.9, 65.676,96z M -6.703,242.292
			c0-10.124, 8.169-18.292, 18.292-18.292l 35.793,0 c 10.124,0, 18.292,8.169, 18.292,18.292c0,10.1-8.169,18.269-18.292,18.269L 11.59,260.561 
			C 1.466,260.561, -6.703,252.393, -6.703,242.292z M 10.822,370.292l 36.561,0 c 10.124,0, 18.292,8.169, 18.292,18.269c0,10.124-8.169,18.292-18.292,18.292
			L 10.822,406.854 C 0.698,406.831,-7.471,398.662,-7.471,388.561C-7.471,378.484, 0.698,370.292, 10.822,370.292z M 312.529,260.561L 166.237,260.561 c-5.050,0-9.146-4.073-9.146-9.123
			s 4.096-9.146, 9.146-9.146l 146.292,0 c 5.027,0, 9.146,4.096, 9.146,9.146S 317.556,260.561, 312.529,260.561z M 431.383,460.567l-36.561,1.164
			C 394.822,471.831, 386.63,480, 376.506,480L 48.151,480 C 38.051,480, 29.859,471.831, 29.859,461.708l0-35.444 l 18.292,0 c0,0, 36.422-3.421, 36.422-36.561
			c0,0, 0.372-36.608-37.329-36.608L 29.859,352l 0.396-72.006l 17.059,0 c0,0, 37.632,0, 37.632-38.865c0,0-3.514-35.444-37.795-35.444L 29.929,205.684 
			l-0.326-71.983l 18.223,0 c0,0, 36.515-1.164, 36.515-37.725c0,0-0.070-37.702-37.795-37.702l-16.454,1.164l-0.233-36.585c0,0, 20.922-54.854, 52.945-54.854
			l 349.719,0 c0,0, 17.152,3.421, 17.152,17.175L 449.676,442.275 C 449.652,442.275, 446.231,460.567, 431.383,460.567z M 120.529,352l 237.708,0 l0-146.292 L 120.529,205.708 L 120.529,352 z
			 M 413.673,21.713c0,0, 0.582-17.152-18.828-17.152L 83.968,4.561 c0,0-18.874,6.284-18.874,18.851l 311.412,0.209c 10.124,0, 18.292,8.169, 18.292,18.269
			L 394.822,445.137 l 18.828-6.284L 413.649,21.713 z M 312.529,315.439L 166.237,315.439 C 161.187,315.439, 157.091,311.343, 157.091,306.292S 161.187,297.146, 166.237,297.146l 146.292,0 
			c 5.027,0, 9.146,4.073, 9.146,9.123S 317.556,315.439, 312.529,315.439z" horiz-adv-x="442.182"  />
<glyph unicode="&#xe00a;" d="M 541.554,5.632l 0.142-41.728l 42.354,0 c0,0, 40.391,0, 40.391,40.42l0,42.382 
			l-40.448-0.54C 542.862,46.194, 541.554,5.632, 541.554,5.632z M 573.611-15.9c-5.746,0-10.439,4.693-10.439,10.439
			c0,5.774, 4.693,10.439, 10.439,10.439c 5.717,0, 10.411-4.665, 10.411-10.439C 584.021-11.207, 579.328-15.9, 573.611-15.9z M 41.159,46.194
			l-40.533,0.54l0-42.382 c0-40.42, 40.42-40.42, 40.42-40.42l 42.382,0 l 0.085,41.728C 83.541,5.632, 82.233,46.194, 41.159,46.194z M 51.484-15.9
			c-5.774,0-10.439,4.693-10.439,10.439c0,5.774, 4.693,10.439, 10.439,10.439s 10.439-4.665, 10.439-10.439
			C 61.924-11.207, 57.259-15.9, 51.484-15.9z M 583.964,318.407l 40.448,1.195L 624.412,360.22 c0,40.448-40.391,40.448-40.391,40.448l-42.354,0 l-0.142-41.785
			C 541.554,358.884, 542.862,318.407, 583.964,318.407z M 573.611,380.444c 5.717,0, 10.411-4.693, 10.411-10.439s-4.693-10.439-10.411-10.439
			c-5.746,0-10.439,4.693-10.439,10.439S 567.865,380.444, 573.611,380.444z M 83.541,358.884l-0.085,41.785L 41.045,400.668 c0,0-40.42,0-40.42-40.448l0-41.5 
			l 40.533-0.313C 82.233,318.407, 83.541,358.884, 83.541,358.884z M 51.484,380.444c 5.774,0, 10.439-4.693, 10.439-10.439S 57.259,359.595, 51.484,359.595
			S 41.045,364.26, 41.045,370.005S 45.71,380.444, 51.484,380.444z M 177.294,5.205c 6.116,0, 11.065,5.006, 11.065,11.093s-4.978,11.065-11.065,11.065
			s-11.065-4.978-11.065-11.065S 171.179,5.205, 177.294,5.205z M 458.268,57.316c0,5.746-4.693,10.439-10.439,10.439
			c-5.774,0-10.439-4.693-10.439-10.439s 4.665-10.439, 10.439-10.439C 453.575,46.905, 458.268,51.57, 458.268,57.316z M 177.18,340.224
			c 5.575,0, 10.098,4.551, 10.098,10.126c0,5.547-4.523,10.098-10.098,10.098c-5.575,0-10.126-4.551-10.126-10.098C 167.054,344.775, 171.605,340.224, 177.18,340.224
			z M 448.91,319.602c-6.485,0-11.776-5.262-11.776-11.719c0-6.485, 5.262-11.719, 11.776-11.719c 6.457,0, 11.719,5.234, 11.719,11.719
			C 460.658,314.34, 455.367,319.602, 448.91,319.602z M 563.172,297.017c-41.7,0-41.7,41.7-41.7,41.7l-1.28,62.578l-103.652,0 l0,42.354 
			C 416.54,486.713, 376.092,484.096, 376.092,484.096L 249.657,484.096 C 209.863,484.096, 208.612,443.022, 208.612,443.022l0-41.7 L 104.306,401.294 L 104.306,337.408 c0,0, 1.28-40.42-42.382-40.42L0,297.017 l0-228.608 
			l 62.578,0 c0,0, 42.382-0.825, 41.728-42.581l 0.199-61.696l 416.341,0.853l0,61.468 c0,0-0.626,41.102, 41.7,41.102l 63.232,0 L 625.778,297.017 L 563.172,297.017 z M 208.612-15.9
			L 146.034-15.9 L 146.034,381.269 l 62.578,0 L 208.612-15.9 z M 375.467,420.864l-0.654-19.541L 249.657,401.294 l0,22.158 c0,18.944, 20.85,20.196, 20.85,20.196l 84.11,0 
			C 376.747,443.648, 375.467,420.864, 375.467,420.864z M 479.744-15.9l-62.578,0 L 417.166,381.269 l 62.578,0 L 479.744-15.9 z M 447.829,338.091
			c 6.116,0, 11.065,4.949, 11.065,11.065c0,6.116-4.978,11.065-11.065,11.065s-11.093-4.978-11.093-11.065
			C 436.736,343.040, 441.714,338.091, 447.829,338.091z M 177.294,296.789c 6.116,0, 11.065,4.978, 11.065,11.093c0,6.144-4.978,11.065-11.065,11.065
			S 166.229,313.998, 166.229,307.854C 166.229,301.739, 171.179,296.789, 177.294,296.789z M 448.142,26.681c-5.945,0-10.78-4.836-10.78-10.752
			c0-5.945, 4.836-10.78, 10.78-10.78c 5.916,0, 10.752,4.836, 10.752,10.78C 458.866,21.874, 454.059,26.681, 448.142,26.681z M 177.294,67.129
			c-5.774,0-10.439-4.665-10.439-10.439c0-5.717, 4.693-10.439, 10.439-10.439s 10.439,4.722, 10.439,10.439
			C 187.733,62.464, 183.040,67.129, 177.294,67.129z" horiz-adv-x="625.778"  />
<glyph unicode="&#xe00b;" d="M 274.313,438.254c-122.697,0-184.567-87.963-184.567-161.335c0-44.416, 16.814-83.922, 52.873-98.633c 5.915-2.441, 11.218-0.091, 12.928,6.455
	c 1.189,4.517, 4.023,15.945, 5.275,20.727c 1.728,6.473, 1.061,8.731-3.721,14.4c-10.395,12.251-17.051,28.133-17.051,50.633
	c0,65.262, 48.832,123.685, 127.15,123.685c 69.349,0, 107.456-42.377, 107.456-98.953c0-74.469-32.951-137.317-81.865-137.317
	c-27.017,0-47.232,22.336-40.768,49.746c 7.753,32.722, 22.793,68.014, 22.793,91.648c0,21.129-11.355,38.766-34.825,38.766
	c-27.621,0-49.81-28.571-49.81-66.843c0-24.375, 8.238-40.869, 8.238-40.869s-28.261-119.753-33.216-140.727
	c-9.865-41.765-1.481-92.955-0.768-98.121c 0.411-3.072, 4.352-3.813, 6.144-1.499c 2.542,3.328, 35.447,43.941, 46.619,84.526
	c 3.173,11.474, 18.158,70.976, 18.158,70.976c 8.978-17.125, 35.2-32.165, 63.095-32.165c 83.008,0, 139.328,75.675, 139.328,176.96
	C 437.787,366.921, 372.91,438.254, 274.313,438.254z"  />
<glyph unicode="&#xe00c;" d="M 197.547,468.025C 197.547,477.525, 189.838,485.262, 180.366,485.262l-69.689,0 
			c-9.5,0-17.209-7.737-17.209-17.237l0-33.764 l 104.078,0 L 197.547,468.025 z M 231.509,310.016c-66.844,0-121.060-54.187-121.060-121.060
			c0-66.901, 54.215-121.088, 121.060-121.088c 66.873,0, 121.116,54.187, 121.116,121.088C 352.654,255.829, 298.382,310.016, 231.509,310.016z M 231.509,102.884
			c-47.474,0-85.988,38.542-85.988,86.044s 38.514,86.016, 85.988,86.016c 47.502,0, 86.044-38.514, 86.044-86.016S 279.040,102.884, 231.509,102.884z
			 M 591.019,102.884l 63.204,0 L 654.222,339.826 c0,47.474-38.514,85.959-85.988,85.959L 85.959,425.785 C 38.514,425.785,0,387.271,0,339.826l0-291.1 
			c0-47.474, 38.514-85.959, 85.959-85.959l 482.247,0 c 41.7,0, 76.43,29.668, 84.309,69.035l-61.525,0 c-7.908,0-14.393,6.428-14.393,14.308
			c0,7.936, 6.457,14.393, 14.393,14.393l 63.204,0 l0,13.767 l-63.204,0 c-7.908,0-14.393,6.428-14.393,14.364C 576.626,96.512, 583.111,102.884, 591.019,102.884z
			 M 231.509,26.425c-89.742,0-162.446,72.761-162.446,162.503c0,89.742, 72.732,162.475, 162.446,162.475c 89.742,0, 162.475-72.761, 162.475-162.475
			C 394.012,99.186, 321.28,26.425, 231.509,26.425z M 569.088,268.601l-113.294,0 c-9.444,0-17.152,7.68-17.152,17.209L 438.642,335.332 
			c0,9.472, 7.708,17.152, 17.152,17.152l 113.294,0 c 9.444,0, 17.152-7.68, 17.152-17.152l0-49.522 C 586.268,276.281, 578.56,268.601, 569.088,268.601z" horiz-adv-x="654.222"  />
<glyph unicode="&#xe00d;" d="M 49.713,96.585l 82.261-82.31L 436.078,318.354l-82.31,82.31
			L 49.713,96.585z M 353.621,344.125l-198.339-198.315c-4.023-4.023-10.533-4.023-14.58,0c-4.023,4.023-4.023,10.533,0,14.58l 198.315,198.315
			c 4.023,4.023, 10.533,4.023, 14.58,0C 357.669,354.682, 357.669,348.148, 353.621,344.125z M0-28.587l 118.979,36.474l-76.166,76.166L0-28.587z M 497.835,448.646
			l-13.751,13.726c-18.92,18.944-49.64,18.944-68.559,0l-37.742-37.717c-0.414-0.414-0.634-0.853-1.048-1.268L 458.825,341.297
			c 0.414,0.414, 0.829,0.658, 1.268,1.048l 37.742,37.717C 516.73,399.006, 516.73,429.702, 497.835,448.646z M 379.246,412.367
			c-3.73,3.706-9.728,3.706-13.458,0c-3.682-3.73-3.682-9.728,0-13.434l 68.632-68.559c 3.682-3.73, 9.704-3.73, 13.41,0
			c 3.706,3.706, 3.706,9.728,0,13.41L 379.246,412.367z"  />
<glyph unicode="&#xe00e;" d="M 283.67,139.765L 86.528,139.765 c-5.877,0-10.663-4.764-10.663-10.663
			c0-5.877, 4.764-10.663, 10.663-10.663l 197.142,0 c 5.899,0, 10.641,4.786, 10.641,10.663C 294.311,135.023, 289.569,139.765, 283.67,139.765z
			 M 283.67,93.084L 86.528,93.084 c-5.877,0-10.663-4.764-10.663-10.663s 4.764-10.663, 10.663-10.663l 197.142,0 c 5.899,0, 10.641,4.764, 10.641,10.663
			S 289.569,93.084, 283.67,93.084z M 89.734,207.816l 81.052,0 c 7.858,0, 14.225,6.367, 14.225,14.225L 185.010,347.882 c0,7.858-6.367,14.225-14.225,14.225L 89.734,362.106 
			c-7.858,0-14.225-6.367-14.225-14.225l0-125.818 C 75.509,214.205, 81.875,207.816, 89.734,207.816z M 283.67,46.358L 86.528,46.358 
			c-5.877,0-10.663-4.764-10.663-10.641c0-5.899, 4.764-10.685, 10.663-10.685l 197.142,0 c 5.899,0, 10.641,4.786, 10.641,10.685
			C 294.311,41.594, 289.569,46.358, 283.67,46.358z M 283.67,309.86l-73.728,0 c-5.877,0-10.663-4.786-10.663-10.641
			c0-5.899, 4.764-10.685, 10.663-10.685l 73.728,0 c 5.899,0, 10.641,4.764, 10.641,10.685C 294.311,305.096, 289.569,309.86, 283.67,309.86z M 382.776,467.912
			c-19.278,11.353-38.689,12.043-45.212,12.11C 336.584,480.045, 335.85,480, 335.471,480L 81.297,480 l0-23.752 l 255.021,0 l 0.312,0.045c0,0, 0.111,0, 0.935,0
			c 4.252,0.067, 19.946-0.846, 33.080-8.749c 12.978-8.147, 24.91-21.281, 25.266-53.27c0-351.811,0-351.811, 0.022-351.811l 23.708,0 c0,0,0,0,0,351.811
			C 420.018,432.963, 402.232,456.782, 382.776,467.912z M 283.67,362.106l-73.728,0 c-5.877,0-10.663-4.764-10.663-10.663c0-5.877, 4.764-10.663, 10.663-10.663
			l 73.728,0 c 5.899,0, 10.641,4.764, 10.641,10.663C 294.311,357.32, 289.569,362.106, 283.67,362.106z M 307.868,425.572L 62.664,425.572 C 29.874,425.572, 3.339,399.015, 3.339,366.269
			l0-340.435 c0-32.746, 26.535-59.347, 59.325-59.347l 245.203,0 c 32.768,0, 59.325,26.557, 59.325,59.347L 367.171,366.269 C 367.171,399.015, 340.636,425.572, 307.868,425.572z
			 M 343.441,25.834c-0.022-19.656-15.939-35.573-35.595-35.595L 62.664-9.761 c-19.656,0.022-35.573,15.917-35.595,35.595L 27.069,366.269 
			c0,19.634, 15.917,35.551, 35.595,35.595l 245.203,0 c 19.634-0.045, 35.573-15.961, 35.595-35.595L 343.441,25.834 z" horiz-adv-x="422.957"  />
<glyph unicode="&#xe00f;" d="M 324.608,303.36c 45.746,0, 82.81,37.087, 82.81,82.81
			c0,45.746-37.064,82.833-82.81,82.833c-45.746,0-82.833-37.064-82.833-82.833C 241.753,340.447, 278.862,303.36, 324.608,303.36z M 162.682,313.689
			c 33.169,0, 59.993,26.869, 59.993,59.971c0,33.146-26.869,60.015-59.993,60.015c-33.102,0-59.971-26.891-59.971-60.015
			C 102.689,340.536, 129.581,313.689, 162.682,313.689z M 324.608,281.144c-39.246,0-73.127-22.684-89.489-55.608c-0.223,39.825-32.523,72.036-72.415,72.036
			c-27.626,0-51.645-15.494-63.844-38.222l0,14.492 c0,27.737-22.483,50.243-50.265,50.243C 20.836,324.085,-1.647,301.579,-1.647,273.842l0-107.119 l 91.915,0 l0-95.944 l 134.344,0 
			l0-102.778 l 199.992,0 l0,213.148 C 424.582,236.355, 379.837,281.144, 324.608,281.144z M 48.595,335.26c 22.995,0, 41.628,18.632, 41.628,41.628
			c0,22.973-18.61,41.628-41.628,41.628c-22.995,0-41.65-18.655-41.65-41.628C 6.968,353.892, 25.6,335.26, 48.595,335.26z" horiz-adv-x="422.957"  />
<glyph unicode="&#xe010;" d="M 378.027,478.379L 133.696,478.379 c0,0-35.093,0.533-35.093-36.16L 98.411,5.632
			c0,0-3.285-36.011, 33.451-36.011l 247.787,0 c0,0, 33.984-0.512, 33.984,34.56L 413.632,442.219 C 413.653,442.219, 414.741,478.379, 378.027,478.379z M 220.672,460.843
			l 70.208,0 L 290.88,443.307 l-70.208,0 L 220.672,460.843 z M 194.347,460.843c 4.864,0, 8.789-3.925, 8.789-8.768S 199.211,443.307, 194.347,443.307C 189.504,443.307, 185.6,447.211, 185.6,452.053
			S 189.504,460.843, 194.347,460.843z M 255.765,4.693c-9.685,0-17.536,7.851-17.536,17.557c0,9.664, 7.851,17.557, 17.536,17.557
			s 17.536-7.893, 17.536-17.557C 273.301,12.544, 265.451,4.693, 255.765,4.693z M 379.285,74.88L 132.224,74.88 L 132.224,425.749 l 247.083,0 L 379.307,74.88 z"  />
<glyph unicode="&#xe011;" d="M 332.31,313.511l-11.509,0 c 0.512,5.12, 0.868,10.307, 0.868,15.605
			C 321.692,412.438, 257.402,480, 178.087,480C 98.794,480, 34.46,412.438, 34.46,329.094c0-5.276, 0.378-10.463, 0.89-15.605L 23.841,313.489 
			C 8.459,313.511,-4.029,301,-4.029,285.64l0-289.77 C-4.029-19.534, 8.459-32, 23.841-32l 308.469,0 c 15.405,0, 27.871,12.466, 27.871,27.871L 360.203,285.64 
			C 360.203,301, 347.737,313.511, 332.31,313.511z M 197.877,130.95l0-56.81 L 158.297,74.14 L 158.297,130.95 c-14.692,7.346-24.932,22.372-24.932,39.981
			c0,24.687, 20.013,44.722, 44.744,44.722s 44.744-20.035, 44.744-44.722C 222.854,153.366, 212.614,138.296, 197.877,130.95z M 287.277,313.511L 68.897,313.511 
			c-0.69,5.098-1.113,10.307-1.113,15.605c0,64.022, 49.375,115.912, 110.303,115.912c 60.906,0, 110.303-51.89, 110.303-115.912
			C 288.39,323.795, 287.944,318.609, 287.277,313.511z" horiz-adv-x="356.174"  />
<glyph unicode="&#xe012;" d="M 256,480C 114.637,480,0,365.363,0,224s 114.637-256, 256-256
			s 256,114.637, 256,256S 397.363,480, 256,480z M 256,25.446c-109.67,0-198.554,88.883-198.554,198.554c0,109.722, 88.883,198.605, 198.554,198.605
			s 198.605-88.883, 198.605-198.605C 454.656,114.432, 365.619,25.446, 256,25.446z M 261.12,333.568c-59.085,0-106.957-47.872-106.957-106.906
			s 47.923-106.957, 106.957-106.957s 106.906,47.923, 106.906,106.957S 320.102,333.568, 261.12,333.568z"  />
<glyph unicode="&#xe013;" d="M 200.384,138.389l 141.205,141.248l-24.811,24.875l-141.248-141.227
			L 200.384,138.389z M 268.203,184.192l-28.864-28.843l 12.139-12.16l-131.627-131.584l-76.267,76.245l 131.627,131.605l 12.117-12.117l 28.843,28.843
			l-16.917,16.917c-13.291,13.291-34.773,13.291-48.085,0l-141.227-141.248c-13.291-13.248-13.291-34.752,0-48.043l 85.867-85.867
			c 13.312-13.248, 34.795-13.248, 48.043,0l 141.269,141.248c 13.248,13.269, 13.248,34.773,0,48.043L 268.203,184.192z M 502.059,384.171l-85.824,85.867
			c-13.312,13.291-34.837,13.291-48.085,0l-141.227-141.205c-13.291-13.333-13.291-34.773,0-48.064l 16.939-16.96l 28.864,28.864l-12.16,12.139l 131.627,131.584
			l 76.224-76.245l-131.605-131.584l-12.117,12.096l-28.885-28.843l 16.96-16.981c 13.291-13.227, 34.795-13.227, 48.064,0l 141.227,141.269
			C 515.328,349.419, 515.349,370.923, 502.059,384.171z"  />
<glyph unicode="&#xe014;" d="M 169.237-3.136l 45.931-28.075l 90.176,0 l 45.931,28.075l0,37.419 L 169.237,34.283 
			L 169.237-3.136 z M 169.237,52.992l 182.037,0 l0,31.509 L 169.237,84.501 L 169.237,52.992 z M 356.821,260.8c 0.107,4.736-2.539,13.739-7.488,20.309
			c-5.077,6.699-11.285,10.901-19.755,10.965c-1.707,0-3.349,0.021-4.907,0.021c-7.36-0.128-12.907-0.619-18.283-6.635
			c-5.483-6.123-11.755-21.333-11.669-53.909c0-2.688, 0.043-5.483, 0.128-8.405l 43.371,0 C 342.4,225.429, 356.011,233.835, 356.821,260.8z M 256,479.211
			c-100.075,0-181.205-81.109-181.205-181.205c0-68.629, 38.165-128.32, 94.443-159.083l0-35.712 l 73.579,0 l0,99.52 L 169.536,202.731 l-1.707,0.619
			c-1.792,0.213-32.299,13.504-33.067,57.237c 0.107,10.389, 3.861,22.187, 11.456,32.64C 153.728,303.552, 166.208,312.512, 182.4,312.469
			c 1.301,0, 2.987,0.043, 4.928,0.043C 195.691,312.661, 210.176,311.467, 221.013,298.88c 10.645-12.437, 16.619-32.533, 16.683-67.328
			c0-2.709-0.021-5.504-0.085-8.405l 36.821,0 c-0.085,2.901-0.085,5.696-0.085,8.405c 0.064,34.795, 6.016,54.891, 16.683,67.328
			c 10.837,12.565, 25.323,13.781, 33.664,13.632c 1.963,0, 3.627-0.043, 4.907-0.043c 16.192,0.043, 28.715-8.917, 36.181-19.243
			c 7.595-10.475, 11.349-22.251, 11.456-32.64c-0.768-43.733-31.275-57.024-33.109-57.237l-1.664-0.619l-73.28,0 l0-99.52 l 82.091,0 l0,40.661 
			c 51.584,31.957, 85.931,89.024, 85.931,154.133C 437.205,398.101, 356.075,479.211, 256,479.211z M 182.4,292.075c-8.469-0.043-14.677-4.267-19.755-10.965
			c-4.949-6.571-7.573-15.573-7.467-20.309c 0.789-26.965, 14.379-35.371, 18.603-37.653l 43.371,0 c 0.064,2.923, 0.107,5.717, 0.107,8.405
			c 0.064,32.576-6.187,47.808-11.669,53.909C 200.235,291.499, 194.667,291.968, 187.349,292.096C 185.749,292.096, 184.128,292.075, 182.4,292.075z"  />
<glyph unicode="&#xe015;" d="M 502.516,224.829l-233.594,233.618c-12.629,12.605-196.072,27.624-208.701,14.97
			L 6.193,425.85c-12.629-12.629-4.047-191.781, 8.582-204.41L 256.975-20.736c 12.605-12.629, 33.109-12.629, 45.714,0l 199.826,199.802
			C 515.17,191.695, 515.17,212.2, 502.516,224.829z M 78.312,362.142c0,20.724, 16.823,37.522, 37.522,37.522s 37.498-16.823, 37.498-37.522
			S 136.533,324.645, 115.81,324.645S 78.312,341.443, 78.312,362.142z M 281.99,73.838l-177.957,167.205l 132.901,130.779l 177.957-169.374L 281.99,73.838z"  />
<glyph unicode="&#xe016;" d="M 575.195,83.493c-8.96,125.55-86.638,136.082-112.567,136.082
			c-35.621,4.023-79.397-22.674-98.816-58.331c-41.326-69.669-69.669-48.603-79.397-48.603C 230.912,138.569, 217.929,141.056, 183.918,141.056
			c-67.109,0.731-94.537-62.757-100.133-77.751l 491.41,0 L 575.232,83.493 z M 216.32,200.192c 45.605,0, 82.651,36.974, 82.651,82.651
			c0,45.641-36.974,82.651-82.651,82.651c-45.641,0-82.651-36.974-82.651-82.651C 133.669,237.166, 170.679,200.192, 216.32,200.192z M0,469.138l0-490.313 l 658.286,0 L 658.286,469.138 L0,469.138 z
			 M 604.343,30.062L 53.467,30.062 L 53.467,414.83 l 550.875,0 L 604.343,30.062 z" horiz-adv-x="658.286"  />
<glyph unicode="&#xe017;" d="M 535.552,428.211L 51.328,428.211 l0-328.090 l 484.224,0 L 535.552,428.211 z M 557.875,479.462L 30.925,479.462 
			C 13.824,479.462,0,465.613,0,448.563l0-367.949 c0-17.050, 13.824-30.848, 30.925-30.848l 165.606,0 l0-36.813 c0-25.344-62.285-25.344-62.285-25.344l0-18.509 l 156.826-0.538
			l 1.69,0 l 156.851,0.538l0,18.509 c0,0-62.285,0-62.285,25.344L 387.328,49.741 l 170.522,0 c 17.075,0, 30.899,13.824, 30.899,30.848L 588.749,448.563 
			C 588.8,465.613, 574.95,479.462, 557.875,479.462z M 563.226,74.342L 25.549,74.342 L 25.549,454.835 L 563.226,454.835 L 563.226,74.342 z" horiz-adv-x="588.8"  />
<glyph unicode="&#xe018;" d="M 205.196,466.060l 15.686-51.549l 15.43,0 l 15.709,51.549l0-51.549 l 14.871,0 L 266.915,480 l-24.017,0 
			L 228.678,435.34L 214.319,480L 190.348,480 l0-65.466 l 14.848,0 L 205.196,466.060 z M 339.107,425.565l-39.843,0 L 299.287,479.465 l-16.012,0 l0-64.931 l 55.855,0 L 339.107,425.565 z M 140.73,414.534l 16.012,0 L 156.742,468.922 
			l 23.482,0 L 180.224,480 L 117.178,480 l0-11.078 L 140.73,468.922 L 140.73,414.534 z M 58.927,443.159l 31.395,0 l0-28.625 l 16.035,0 L 106.333,480 L 90.298,480 l0-25.763 L 58.927,454.237 L 58.927,480 L 42.915,480 l0-65.466 l 16.012,0 L 58.927,443.159 z M 3.165,380.812
			l 31.628-368.803l 154.135-44.055l 143.127,44.055l 37.143,368.803L 3.165,380.812 z M 297.635,258.351L 122.88,258.351 l 1.396-44.055l 166.54,0 l-10.985-137.612l-93.58-27.508
			l-92.207,26.135l-6.889,71.54l 42.659-1.373l 2.746-31.674l 57.809-17.85l 46.778,15.127l 6.912,56.46L 87.11,167.564 L 71.959,306.479l 228.422,2.769
			L 297.635,258.351z" horiz-adv-x="372.364"  />
<glyph unicode="&#xe019;" d="M 443.853,334.182L 443.853,455.398 l-62.976,0 l0-67.84 l-111.974,94.976L 268.877,482.662 l-0.051-0.051
			L 268.723,482.662l 0.026-0.102L0,254.618l0-34.022 l 33.203-0.102l 235.622,204.749l 235.597-204.749l 33.178,0.102L 537.6,254.618 L 443.853,334.182z M 46.515,204.365
			L 45.67-34.637l 163.712,0.512l0,191.514 l 116.122,0 l0-191.078 l 162.739,0.512l0,240.538 l-220.851,190.618L 46.515,204.365z M 325.504,183.68L 209.382,183.68 L 209.382,247.782 l 116.122,0 L 325.504,183.68 z
			" horiz-adv-x="537.6"  />
<glyph unicode="&#xe01a;" d="M 305.835,455.787L 179.563,455.787 c-33.109,0-74.773-4.885-109.717-33.707
			C 43.52,399.424, 30.635,368.128, 30.635,339.947c0-47.787, 36.779-96.192, 101.76-96.192c 6.144,0, 12.864,0.576, 19.605,1.195
			c-3.072-7.36-6.144-13.504-6.144-23.915c0-19.008, 9.792-30.635, 18.389-41.643c-27.584-1.877-79.083-4.928-117.056-28.203
			C 11.008,129.685,0,98.475,0,76.416c0-45.397, 42.88-87.659, 131.776-87.659c 105.387,0, 161.195,58.219, 161.195,115.819c0,42.304-24.512,63.168-51.477,85.845
			l-22.101,17.131c-6.72,5.547-15.936,12.885-15.936,26.368c0,13.483, 9.216,22.080, 17.173,30.016c 25.749,20.224, 51.499,41.707, 51.499,87.040
			c0,46.613-29.397,71.104-43.52,82.752l 37.995,0 L 305.835,455.787z M 251.904,80.64c0-37.931-31.275-66.176-90.091-66.176
			c-65.579,0-107.883,31.253-107.883,74.795c0,43.52, 39.211,58.219, 52.693,63.125c 25.749,8.576, 58.859,9.813, 64.384,9.813c 6.101,0, 9.173,0, 14.059-0.619
			C 231.68,128.469, 251.904,111.979, 251.904,80.64z M 202.859,278.037c-9.813-9.813-26.347-17.152-41.664-17.152c-52.715,0-76.608,68.011-76.608,109.077
			c0,15.957, 3.051,32.469, 13.461,45.355C 107.883,427.584, 125.013,435.563, 140.971,435.563c 50.837,0, 77.205-68.651, 77.205-112.789
			C 218.176,311.744, 216.939,292.16, 202.859,278.037z M 444.544,391.808L 444.544,459.264 l-33.707,0 l0-67.456 l-67.456,0 l0-33.728 l 67.456,0 l0-67.435 l 33.707,0 L 444.544,358.080 L 512,358.080 L 512,391.808 L 444.544,391.808 z"  />
<glyph unicode="&#xe01b;" d="M 254.677,480c-141.376,0-256-114.603-256-256c0-141.376, 114.624-256, 256-256
			c 141.376,0, 256,114.624, 256,256C 510.677,365.397, 396.032,480, 254.677,480z M 263.595,388.757c 4.309-8.64, 1.429-25.984-23.083-34.645L 208.789,416.128
			C 208.789,416.128, 252.053,429.141, 263.595,388.757z M 192.917,12.288c-17.301-1.408-38.933-5.76-44.693,60.608
			c-8.661,14.4-24.512,18.731-40.384,21.632c-15.872,2.88-18.752,36.032,0,62.016C 91.968,173.824, 24.192,232.96, 38.613,292.096
			c 14.421,46.165, 37.504,105.301, 118.251,142.784c 31.744-30.272, 53.355-47.595, 10.091-70.677c-17.301-10.112-21.611-34.624,0-37.483
			c0,0, 4.331,21.632, 17.323,15.851c 12.971-5.76, 43.264-36.053, 20.203-37.504c-23.083-1.451-33.195-11.52-43.264-24.512
			c-10.091-12.971-28.843-46.123-41.835-47.595c-12.971-1.429-11.541,20.203-23.083,20.203c-11.541,0-23.061,0-17.301-36.053
			c 7.211-20.181, 69.248-66.325, 207.68-109.611C 288.128,100.288, 270.784,19.541, 192.917,12.288z M 440.981,172.416c0,0-2.88-2.901-11.52-7.232
			c-8.661-4.331-85.077-27.392-82.219,38.933c 5.781,15.872, 46.144,99.52-31.723,132.715c 8.64,15.851, 36.032,20.16, 36.032,20.16l-49.024,79.339
			c0,0, 154.304-18.752, 170.176-177.387c0-24.491-1.408-89.408-15.851-125.483C 443.883,160.853, 440.981,172.416, 440.981,172.416z"  />
<glyph unicode="&#xe01c;" d="M 688.384,474.325c-94.251,0-176.341-52.139-219.008-129.152
			C 426.624,422.187, 344.576,474.325, 250.283,474.325C 112.085,474.325,0,362.24,0,224s 112.085-250.283, 250.283-250.283c 94.208,0, 176.341,52.139, 219.008,129.109
			c 42.709-76.971, 124.757-129.109, 219.008-129.109c 138.24,0, 250.283,112.043, 250.283,250.283S 826.624,474.325, 688.384,474.325z M 688.384,34.091
			c-97.707,0-178.133,73.813-188.715,168.704c 0.597,6.997, 0.981,14.080, 0.981,21.205c0,7.168-0.427,14.208-0.981,21.205
			c 10.539,94.891, 90.965,168.747, 188.715,168.747c 104.832,0, 189.909-85.035, 189.909-189.952C 878.251,119.125, 793.216,34.091, 688.384,34.091z" horiz-adv-x="938.667"  />
<glyph unicode="&#xe01d;" d="M 304.384,407.573l 77.675,0 L 381.781,480c0,0, 0.277,0-120.448,0
			C 209.877,478.955, 211.989,427.52, 211.989,427.52l0-125.952 L 128,301.568 l0-94.485 l 83.989,0 l0-238.293 l 92.395,0 L 304.384,210.219 l 76.608,0 L 380.992,304.725 l-76.608,0 L 304.384,407.573 z"  />
<glyph unicode="&#xe01e;" d="M 81.856,278.933c0,0, 1.195,27.584, 33.579,28.779l 281.067,0 
			c 32.427-1.195, 33.6-28.779, 33.6-28.779l0-37.205 l 67.157,50.368c0,0-200.32,133.141-209.92,137.941c-9.344,4.672-18.688,11.541-31.317,11.925l-0.107,0 
			c-12.672-0.384-22.016-7.253-31.339-11.925c-9.6-4.8-209.92-137.941-209.92-137.941l 67.179-50.368L 81.835,278.933 z M 308.885,233.963L 203.093,233.963 
			c-4.139,0-7.488-3.349-7.488-7.488c0-4.139, 3.349-7.488, 7.488-7.488l 105.813,0 c 4.139,0, 7.531,3.349, 7.531,7.488
			C 316.416,230.613, 313.045,233.963, 308.885,233.963z M 308.885,271.104L 203.093,271.104 c-4.139,0-7.488-3.349-7.488-7.509
			c0-4.117, 3.349-7.488, 7.488-7.488l 105.813,0 c 4.139,0, 7.531,3.371, 7.531,7.488C 316.416,267.755, 313.045,271.104, 308.885,271.104z M 308.885,197.461
			L 203.093,197.461 c-4.139,0-7.488-3.371-7.488-7.531c0-4.117, 3.349-7.488, 7.488-7.488l 105.813,0 c 4.139,0, 7.531,3.349, 7.531,7.488
			C 316.416,194.091, 313.045,197.461, 308.885,197.461z M 510.848,275.221c-41.131-31.424-191.488-146.368-205.76-159.168
			c-16.512-14.805-31.936-23.381-49.024-24.512c-0.021,0-0.021,0-0.021,0l0,0.021 L 256,91.563 c-0.021,0-0.043,0-0.043,0l0-0.021 l-0.043,0 
			c-17.088,1.152-32.469,9.707-49.024,24.512c-14.251,12.8-164.608,127.744-205.739,159.168C0,271.189-0.661,266.987-0.661,262.592l0-210.965 
			c0-8.704, 2.475-16.789, 6.699-23.701l 120.619,117.589c 2.624,2.539, 6.827,2.475, 9.365-0.128c 2.56-2.624, 2.496-6.805-0.128-9.365
			l-121.365-118.315c 8.064-7.232, 18.709-11.669, 30.421-11.669l 422.101,0 c 11.712,0, 22.336,4.437, 30.4,11.669l-121.344,118.315
			c-2.603,2.56-2.667,6.741-0.107,9.365c 2.539,2.603, 6.72,2.667, 9.344,0.128l 120.64-117.589c 4.203,6.912, 6.699,14.997, 6.699,23.701
			l0,210.965 C 512.661,266.987, 512,271.189, 510.848,275.221z"  />
<glyph unicode="&#xe01f;" d="M 254.677,480C 114.027,480,0,365.995,0,225.323
			c0-140.629, 114.027-254.677, 254.677-254.677c 140.629,0, 254.677,114.048, 254.677,254.677C 509.333,365.995, 395.285,480, 254.677,480z M 474.603,242.027
			c-17.941,1.899-35.307,2.795-52.139,2.795c-37.824,0-72.725-4.544-104.683-12.075c-6.464,14.485-12.971,28.437-19.541,41.813
			c 42.24,20.928, 85.184,50.539, 125.867,92.011C 452.715,332.331, 471.061,289.259, 474.603,242.027z M 254.677,445.952c 54.635,0, 104.555-19.861, 143.125-52.757
			c-37.888-38.635-77.547-66.048-116.48-85.291c-33.067,62.741-64.021,109.12-79.851,131.563C 218.517,443.669, 236.331,445.952, 254.677,445.952z M 164.629,426.731
			C 165.312,425.813, 165.995,424.853, 166.848,423.701c 13.035-18.069, 45.312-65.088, 80.107-130.859c-56.747-21.781-110.251-27.755-152.192-27.84
			c-22.891-0.021-42.176,1.792-56.427,3.755C 52.48,339.499, 100.437,397.973, 164.629,426.731z M 80.363,90.219c-28.992,37.333-46.315,84.181-46.315,135.125
			c0,2.133, 0.107,4.181, 0.171,6.251c 15.595-2.112, 36.245-3.989, 60.544-4.011l 0.768,0 c 46.037,0, 105.557,6.997, 168.469,31.808
			c 5.824-11.84, 11.627-24.128, 17.365-36.864c-50.624-16.576-92.565-40.299-125.397-64.043C 120.192,132.651, 95.019,106.965, 80.363,90.219z
			 M 254.677,4.736c-57.365,0-109.589,21.888-148.843,57.792c 13.824,16.192, 41.6,45.312, 82.624,73.088c 29.291,19.819, 65.28,38.891, 107.797,52.416
			c 20.523-49.792, 38.997-104.789, 51.605-162.667C 319.552,12.139, 287.979,4.736, 254.677,4.736z M 381.76,45.035
			c-12.693,54.379-30.016,105.813-49.109,152.768c 27.563,6.016, 57.472,9.6, 89.813,9.6c 16.619,0, 33.899-0.96, 51.819-3.008
			C 468.053,138.56, 432.96,81.237, 381.76,45.035z"  />
<glyph unicode="&#xe020;" d="M 206.4-6.635c0-24.128, 6.827-26.709, 33.813-26.709
			c 23.744,0, 33.771,4.011, 33.771,26.709L 273.984,427.349 L 206.4,427.349 L 206.4-6.635 z M 460.501,411.691l-169.216-0.512l0-136.107 l 170.624,0 l 52.651,68.288L 460.501,411.691z
			 M 239.851,480C 210.048,480, 207.125,459.115, 207.125,444.971c 12.501,1.109, 66.88,0, 66.88,0C 274.005,459.115, 268.224,480, 239.851,480z M 291.285,256.512l0-101.056 
			l 102.293,0 l 52.672,51.264l-54.101,50.517L 291.285,256.512z M0,344.085l 50.539-69.931L 188.8,274.155 L 188.8,410.965 L 51.968,410.795L0,344.085z"  />
<glyph unicode="&#xe021;" d="M 205.6-4.672c0-24.064, 6.784-26.624, 33.664-26.624
			c 23.68,0, 33.664,3.968, 33.664,26.624L 272.928,427.552 L 205.6,427.552 L 205.6-4.672 z M 458.72,411.968L 290.112,411.424l0-135.584 l 169.984,0 l 52.448,68L 458.72,411.968z M 238.912,480
			C 209.216,480, 206.304,459.2, 206.304,445.12c 12.448,1.088, 66.624,0, 66.624,0C 272.928,459.2, 267.168,480, 238.912,480z M 290.112,257.408l0-100.672 l 101.92,0 l 52.48,51.040
			l-53.888,50.304L 290.112,257.408z M0,344.608l 50.336-69.632l 137.696,0 L 188.032,411.264 L 51.744,411.072L0,344.608z"  />
<glyph unicode="&#xe022;" d="M 103.077,351.269l0-59.209 L 35.831,292.059 l0-135.552 l 110.93,0 L 146.761,351.269 L 103.077,351.260C361AEA34"  />
<glyph unicode="&#xe023;" d="M 503.475,481.434l-188.774,0 l0-182.554 l 188.774,0 L 503.475,481.434 z M 155.827,132.787L 126.822,132.787 l0,129.92 l 76.16,0 
			L 202.982,422.784 L 156.57,422.784 L 156.57,473.037 l-109.030,0 l0-50.253 L 1.152,422.784 l0-160.077 L 77.312,262.707 l0-129.92 L 48.333,132.787 l0-43.264 L0,89.523 l0-122.957 l 204.109,0 l0,122.957 L 155.827,89.523 L 155.827,132.787 z M 164.71,52.403l0-56.448 L 39.424-4.045 
			l0,56.448 L 164.71,52.403 z M 547.84,354.739l0-84.454 L 276.173,270.285 L 276.173,354.739 L 241.408,354.739 l0-122.931 l 45.926,0 l0-263.27 l 126.72,0 l0,133.171 l 43.546,0.051l 0.154-133.222l 78.925,0 L 536.653,231.808 
			l 52.122,0 L 588.774,354.739 L 547.84,354.739 z" horiz-adv-x="588.8"  />
<glyph unicode="&#xe024;" d="M 446.269,417.438l-81.481,0 L 364.812,480 l-40.131,0 l0-62.562 l-186.1,0 L 138.606,480 l-40.131,0 l0-62.562 L 17.018,417.438 
			C 5.583,417.438,-3.682,408.174,-3.682,396.763l0-33.67 l 470.626,0 L 466.944,396.763 C 466.944,408.174, 457.679,417.438, 446.269,417.438z M-3.682-11.276
			c0-11.459, 9.265-20.699, 20.699-20.699l 429.275,0 c 11.435,0, 20.675,9.265, 20.675,20.699L 466.944,334.714 L-3.682,334.714 L-3.682-11.276 z M 343.869,293.9l 82.31,0 l0-81.652 l-82.31,0 L 343.869,293.9 z
			 M 343.869,190.793l 82.31,0 l0-81.652 l-82.31,0 L 343.869,190.793 z M 343.869,89.1l 82.31,0 l0-81.652 l-82.31,0 L 343.869,89.1 z M 240.542,293.9l 82.334,0 l0-81.652 l-82.334,0 L 240.542,293.9 z
			 M 240.542,190.793l 82.334,0 l0-81.652 l-82.334,0 L 240.542,190.793 z M 240.542,89.1l 82.334,0 l0-81.652 l-82.334,0 L 240.542,89.1 z M 137.24,293.9l 82.31,0 l0-81.652 L 137.24,212.248 L 137.24,293.9 z
			 M 137.24,190.793l 82.31,0 l0-81.652 L 137.24,109.141 L 137.24,190.793 z M 137.24,89.1l 82.31,0 l0-81.652 L 137.24,7.448 L 137.24,89.1 z M 33.914,293.9l 82.334,0 l0-81.652 L 33.914,212.248 L 33.914,293.9 z
			 M 33.914,190.793l 82.334,0 l0-81.652 L 33.914,109.141 L 33.914,190.793 z M 33.914,89.1l 82.334,0 l0-81.652 L 33.914,7.448 L 33.914,89.1 z" horiz-adv-x="463.238"  />
<glyph unicode="&#xe025;" d="M 464.768,396.523l-0.853-154.091c0,0-2.603-83.499-92.096-83.499l-125.653,0 
			l-55.957-57.664l 92.075-0.853l 126.528-130.837l 4.309,134.272c0,0, 98.987-6.869, 98.987,80.917c0,87.808,0,129.963,0,129.963S 516.416,367.253, 464.768,396.523z
			 M 355.456,180.48c 45.653,0, 82.624,36.992, 82.624,82.624L 438.080,397.355 C 438.080,443.008, 401.109,480, 355.456,480L 82.645,480 C 36.992,480,0,443.008,0,397.355l0-134.251 
			c0-45.632, 36.992-82.624, 82.645-82.624l 6.933,0 l 0.832-122.219l 136.533,122.219L 355.456,180.48 z"  />
<glyph unicode="&#xe026;" d="M 440.854,462.726c-22.639,22.684-59.169,23.018-82.298,1.091l 83.411-83.389
			C 463.894,403.534, 463.538,440.064, 440.854,462.726z M 110.414,463.794C 87.285,485.721, 50.777,485.432, 28.115,462.726C 5.432,440.064, 5.075,403.534, 27.025,380.405
			L 110.414,463.794z M 233.761,363.019c-75.153,0-136.081-60.928-136.081-136.081c0-75.108, 60.928-136.058, 136.081-136.058c 75.108,0, 136.058,60.95, 136.058,136.058
			C 369.842,302.136, 308.892,363.019, 233.761,363.019z M 227.484,215.207l 11.62,109.679l 10.886-104.381l 60.616-61.507L 227.484,215.207z M 396.533,62.876
			c 42.229,41.895, 68.341,99.951, 68.341,164.085c0,127.666-103.469,231.157-231.135,231.157C 106.118,458.118, 2.605,354.627, 2.605,226.961
			c0-66.983, 28.538-127.288, 74.106-169.517l-39.58-52.758c-2.204-2.204-2.204-5.721,0-7.925l 27.136-27.136c 2.204-2.182, 5.743-2.182, 7.947,0
			l 63.488,47.661c 0.089,0.089, 0.134,0.223, 0.2,0.267c 29.718-13.913, 62.887-21.704, 97.903-21.704c 38.311,0, 74.485,9.372, 106.34,25.912
			c-0.178-1.603, 0.312-3.25, 1.514-4.452l 63.488-47.661c 2.204-2.182, 5.766-2.182, 7.969,0l 27.091,27.136c 2.204,2.204, 2.204,5.721,0,7.925
			L 396.533,62.876z M 233.761,59.47c-92.516,0-167.491,75.019-167.491,167.469c0,92.516, 74.997,167.491, 167.491,167.491
			c 92.472,0, 167.469-74.997, 167.469-167.491C 401.252,134.467, 326.233,59.47, 233.761,59.47z" horiz-adv-x="467.478"  />
<glyph unicode="&#xe027;" d="M 255.787,366.955c 9.365,0, 16.917,7.573, 16.917,16.917
			s-7.552,16.896-16.917,16.896c-9.323,0-16.896-7.552-16.896-16.896S 246.464,366.955, 255.787,366.955z M 255.787,82.389
			c-9.323,0-16.896-7.552-16.896-16.875c0-9.344, 7.573-16.917, 16.896-16.917c 9.365,0, 16.917,7.552, 16.917,16.917
			C 272.704,74.837, 265.152,82.389, 255.787,82.389z M 96.619,241.6c-9.344,0-16.917-7.573-16.917-16.896c0-9.344, 7.573-16.896, 16.917-16.896
			c 9.323,0, 16.896,7.552, 16.896,16.896C 113.515,234.027, 105.941,241.6, 96.619,241.6z M 255.339,480C 114.325,480,0,365.675,0,224.661
			c0-141.013, 114.325-255.339, 255.339-255.339c 141.013,0, 255.339,114.304, 255.339,255.339C 510.677,365.675, 396.352,480, 255.339,480z M 255.339,31.061
			c-106.923,0-193.621,86.677-193.621,193.6s 86.699,193.621, 193.621,193.621s 193.6-86.699, 193.6-193.621S 362.24,31.061, 255.339,31.061z M 334.336,319.253
			l-80.704-80.704l-45.013,44.992c-7.509,7.531-19.712,7.531-27.221,0c-7.509-7.509-7.509-19.669,0-27.2l 60.245-60.075
			c0,0, 7.573-7.616, 17.003-3.115c 10.88,5.227, 102.933,98.88, 102.933,98.88c 7.509,7.531, 7.509,19.712,0,27.221
			C 354.048,326.763, 341.845,326.763, 334.336,319.253z M 414.976,241.6c-9.344,0-16.896-7.573-16.896-16.896c0-9.344, 7.552-16.896, 16.896-16.896
			c 9.344,0, 16.917,7.552, 16.917,16.896C 431.893,234.027, 424.341,241.6, 414.976,241.6z"  />
<glyph unicode="&#xe028;" d="M 483.657,288.512c-11.813-9.765-6.254-24.357-6.254-24.357c 7.643-4.169, 18.103-1.39, 12.507,10.386
		c-5.559,11.813, 8.302,11.813, 10.423,19.456C 502.418,301.641, 495.506,298.203, 483.657,288.512zM 495.506,164.827c 5.522-7.68, 7.607,0, 11.081,9.033c 3.511,9.033-4.864,28.526-11.813,27.136
		c-6.912-1.426, 1.426-12.544, 1.426-12.544C 497.554,175.909, 489.911,172.434, 495.506,164.827zM 599.735,153.637c0,0-15.945-16.677-15.287-29.879c 0.658-13.202-16.713-6.985-20.151-27.794
		c-3.511-20.882, 6.985,0, 10.386,2.121c 3.511,2.121, 9.765,7.643, 14.629,12.507c 4.901,4.864, 0.695,25.71, 11.118,35.401
		C 610.816,155.758, 602.478,152.978, 599.735,153.637zM 684.507,237.751c 9.033,0, 9.691,36.133, 3.438,47.25c-6.217,11.081-4.864-0.731-4.864-0.731
		S 675.474,237.751, 684.507,237.751zM 312.722,91.136c 9.728-2.085-2.779,13.202-6.254,22.235c-3.511,9.106,0,23.662-8.338,22.967
		c-8.302-0.695-2.743-21.541-2.743-21.541C 295.351,107.118, 302.958,93.221, 312.722,91.136zM 754.651,242.249c-13.531,62.537-42.715,72.997-42.715,72.997c-28.123,54.162-48.969,60.416-63.598,80.238
		c-14.555,19.822-32.256,41.728-55.259,44.837c-22.894,3.145-27.099,17.737-45.824,26.075c-18.798,8.338-53.211,12.507-53.211,12.507
		c-27.063,19.822-58.331,5.193-58.331,5.193c-56.247,10.386-57.307-11.447-72.96-13.568C 347.136,468.48, 336.713,485.157, 312.722,478.903
		C 288.768,472.613, 261.632,453.888, 261.632,453.888c-54.199,1.061-38.546-23.954-57.307-23.954c-18.798,0-60.453-12.507-69.888-32.366
		C 125.111,377.783, 113.591,388.206, 90.697,363.191C 67.767,338.139, 62.537,320.439, 62.537,320.439C 58.368,304.823, 46.885,298.533, 46.885,298.533
		C 13.568,259.986, 15.653,219.355, 15.653,219.355C-9.362,193.243, 3.109,163.035, 3.109,163.035C 18.761,139.081, 17.701,114.066, 17.701,114.066
		c 27.136-81.335, 114.651-79.214, 129.28-84.48c 14.592-5.193, 38.546-5.193, 38.546-5.193c 8.338-18.725, 28.16-36.425, 28.16-36.425
		c 17.701,0, 91.685-29.184, 113.554-29.184s 53.138,12.507, 53.138,12.507c 80.274-4.169, 113.591,31.232, 113.591,31.232c 49.006-6.217, 39.643,12.507, 57.307,12.507
		c 17.774,0, 45.897,7.351, 55.296,19.895s 21.906,13.568, 37.522,23.954s 34.414,23.991, 57.307,13.568c 22.93-10.459, 34.414-1.061, 34.414-1.061
		C 782.811,124.489, 768.219,179.712, 754.651,242.249z M 499.639,449.682c0,0-9.691,12.507, 15.323,6.985s 34.048-11.813, 50.030-22.967
		c 15.982-11.081, 25.015-7.643, 28.526-7.643s 2.048-5.559-6.29-6.217c-8.265-0.658-18.725-3.474-37.522,11.154
		c-18.725,14.592-29.879,5.559-33.28-2.779c-3.511-8.338, 0.695-24.357-9.106-24.357c-9.691,0-14.555,2.779-6.217,14.629
		C 501.065,418.45, 505.893,435.090, 499.639,449.682z M 496.859,347.538c 5.559-4.169-6.949-12.507-6.949-12.507c-9.033-1.426-12.507-2.121-25.71-14.629
		s-27.794-6.217-34.048,3.474c-6.29,9.728-10.459,8.338-10.459,8.338C 412.782,328.082, 424.558,316.965, 424.558,316.965
		c 4.901-3.474, 12.544-4.864, 12.544-25.71s-32-43.776-36.133-15.323c-4.169,28.526-15.982,28.526-18.761,51.493
		c-2.779,22.894, 18.761,67.401, 47.945,77.129c 29.147,9.728, 70.875-4.169, 62.537-13.897C 484.352,380.928, 491.301,351.744, 496.859,347.538z M 361.326,441.344
		c 12.507,7.643, 20.151,34.706, 65.353,25.71c0,0, 18.030-4.169, 13.202-20.846c0,0-8.338-13.897, 3.474-13.897c 11.849,0, 21.541,15.323, 11.154,28.526
		c0,0-7.68,10.386, 8.302,9.691c 15.982-0.658, 28.489-15.982, 28.489-38.217c0,0, 5.559-20.151-18.066-10.386c0,0-25.71,8.265-40.997-1.426
		c-15.25-9.691-26.405-9.691-39.607-6.217c0,0-6.254-6.254, 3.474-8.302c0,0, 15.982-6.985, 6.949-9.070
		c-9.033-2.085-21.541-4.901-17.371-28.526c0,0-8.338-8.265-15.25,8.375c0,0-0.731,9.728-4.901,13.202
		c-4.169,3.511-9.691-4.169-4.169-16.677c 5.595-12.507, 10.423-13.934, 9.765-27.794c-0.658-13.897, 2.085-33.353, 11.154-47.909
		c 9.033-14.629, 4.827-23.625, 8.265-29.184c 3.474-5.559, 24.357-18.798, 20.151-35.474s-11.813-32.658-33.353-32.658
		c-21.504,0-28.526-11.081-42.386-14.592C 321.061,182.162, 286.318,191.159, 287.049,251.685c0,0, 1.39,22.894-16.75,58.368c0,0-2.743,22.894, 5.595,27.758
		c0,0, 4.169,22.967-9.033,25.015c0,0-4.901-5.559-1.463-10.386C 268.91,347.538, 267.557,341.248, 262.693,337.115s-1.426-15.982-4.169-15.982
		c0,0-11.813-2.048-4.169,25.746c0,0-4.169,26.405, 9.033,31.963c 13.202,5.595, 27.063,13.934, 41.691,44.471c0,0, 25.71,23.589, 36.169,2.743
		c0,0, 5.559-11.776-6.254-29.184C 323.145,379.465, 324.498,376.027, 325.23,364.91c0,0-19.456-16.677-20.151-25.71C 304.421,330.13, 304.421,310.711, 314.112,301.641
		c0,0, 1.426-34.743, 9.691-50.651c 8.338-15.982, 11.154-24.357, 25.015-23.625c0,0, 4.864,2.779-11.081,14.555c0,0-9.765,4.901-13.202,59.758
		c0,0-20.151,26.478, 4.864,47.982c0,0, 13.202,13.202, 11.813,27.136c0,0, 2.048,15.982, 12.507,21.541C 353.719,398.299, 348.818,433.701, 361.326,441.344z
		 M 97.975,232.85c0,0-18.725-27.721-21.504-2.706c0,0, 20.846,30.537, 36.133,30.537c 15.287,0, 32-27.794, 23.589-57.015
		c0,0-6.217-19.419, 8.375,1.463c0,0, 7.607,17.335, 4.096,26.368c0,0, 7.643,3.511, 22.272-20.846C 185.527,186.331, 198.729,182.162, 213.358,180.041
		c 14.592-2.085, 25.015-20.846, 25.015-27.721c0-6.985-16.713-1.463-32,4.864C 191.122,163.438, 179.968,180.041, 143.835,171.703
		c-36.133-8.265-58.368,37.522-33.353,57.673C 110.482,229.376, 109.824,242.651, 97.975,232.85z M 207.067,195.365C 179.31,210.615, 162.633,232.85, 181.358,234.277
		c 18.798,1.39, 8.338-9.728, 21.541-10.423c 13.275-0.695-7.643,13.202-11.776,25.015C 186.953,260.681, 186.953,287.086, 186.953,291.218
		c0,4.169-8.338,7.643-7.643-10.386s 1.39-50.066-28.526-37.522c0,0-18.798,5.559-12.507,36.864c0,0-2.121,8.338-7.643,0.695
		c0,0, 0.695-9.033-14.629-3.474c0,0-23.589-1.463-29.184-18.798c0,0-11.081-12.507-6.217,2.779c0,0, 9.033,27.794, 20.846,37.522
		s 26.405,22.894, 35.401,36.864c0,0, 6.985,6.912, 16.018-3.511c 9.033-10.423, 17.371-12.507, 11.081-36.827c-6.217-24.357-6.217-33.353, 0.695-23.589
		C 171.666,281.527, 175.835,316.965, 196.681,318.354C 217.527,319.744, 220.306,314.185, 213.358,296.119c-6.985-18.030,0-22.894, 6.254-7.607
		c 6.217,15.25, 8.265,37.522, 33.28,23.589c0,0, 9.765-13.897-2.743-26.405S 231.424,239.141, 231.424,222.464S 234.898,180.041, 207.067,195.365z M 203.593,339.2
		c0,0, 4.206-12.507-12.507-6.985c0,0-5.595-7.643-11.118-11.154c0,0-12.507,15.982-22.235,23.625c0,0-12.544,2.121-9.765,7.643
		c0,0, 15.287,27.063, 36.827,27.063c0,0, 6.254,1.463, 4.864-19.419C 188.343,339.2, 198.729,353.097, 203.593,339.2z M 257.865,274.578
		C 266.862,285.696, 273.774,278.016, 272.384,266.898c-1.39-11.081, 2.121-30.537, 11.154-56.942c 9.033-26.441-2.779-32-2.779-32
		c-6.217-18.761, 7.643-6.949, 7.643-6.949c 2.048,8.302, 11.813,16.75, 11.813,16.75c 18.030-4.206, 1.39-24.357, 1.39-24.357
		c-32-16.713-53.541,0-53.541,0C 224.439,203.666, 257.865,274.578, 257.865,274.578z M 264.741,441.344c 11.118-1.39, 20.846,6.254, 20.846,6.254
		c 12.507,13.202, 41.728,17.371, 57.015,10.386c 15.25-6.912, 5.559-18.030, 5.559-18.030c-33.353,11.813-47.25-2.121-54.199-9.033
		C 286.976,423.973, 291.877,405.943, 264.741,396.873C 237.678,387.803, 240.421,369.115, 243.237,356.571S 234.898,307.237, 218.185,337.115
		C 201.509,366.994, 200.85,350.976, 201.509,373.943c 0.695,22.93, 28.526,15.982, 28.526,15.982c 22.235,1.39, 22.235,17.371, 22.894,30.574
		C 253.659,433.701, 264.741,441.344, 264.741,441.344z M 116.078,362.789c 0.695,2.121-2.121,4.901, 11.776,6.985c 13.934,2.048, 17.371,13.897, 17.371,13.897
		c 23.625,35.438, 70.181,32.658, 70.181,32.658C 219.648,423.314, 231.424,433.701, 231.424,433.701c 13.202,9.070, 15.323,2.779, 15.323,2.779
		c-4.901-1.426-5.595-11.154-5.595-11.154c 2.779-22.894-13.897-22.235-13.897-22.235c-19.419,0.695-37.522-9.691-37.522-9.691
		C 129.28,374.638, 146.651,354.45, 130.633,347.538C 114.651,340.59, 116.078,362.789, 116.078,362.789z M 68.096,289.902c0,0, 13.897,10.386, 13.897,33.317
		c0,0, 9.765,21.541, 20.846,27.099c0,0,0-17.371, 15.982-13.897c0,0, 1.426-7.643-11.081-15.323C 95.195,313.49, 82.725,302.373, 79.25,289.902
		c0,0-9.070-7.643-13.202-26.441c0,0-8.338-12.507-30.61-18.761C 35.401,244.663, 43.776,273.189, 68.096,289.902z M 59.099,241.883
		c 15.982,4.169, 9.691-4.133, 9.691-4.133C 62.537,235.666, 54.894,221.769, 54.894,221.769C 33.353,209.225, 44.471,186.331, 44.471,186.331
		c-0.695-31.269-20.114-16.713-20.114-16.713C 13.239,222.464, 59.099,241.883, 59.099,241.883z M 38.254,130.011c0,0-1.39,11.118-8.338,15.982
		c0,0-5.559,11.118, 12.507,11.118c0,0, 20.151,6.29, 19.456,19.493c0,0-6.985,11.118-5.595,20.114c0,0-1.39,17.408, 13.202,19.456
		c 14.629,2.121, 20.151-13.861, 19.456-26.368s 18.030-23.662, 29.879-23.662S 116.005,153.637, 101.486,146.725c-14.629-6.985-18.030-17.371-52.773-8.302
		c0,0-4.206-23.662, 51.419-6.985c0,0, 13.897,4.901, 19.419,12.507c0,0-2.048-24.357, 6.254-36.133c 8.338-11.813-15.323-45.093-70.875-17.371
		C 54.894,90.405, 34.085,101.559, 38.254,130.011z M 143.141,59.867c-0.695-24.357-53.541-6.985-70.875,11.813c0,0, 22.93-11.813, 50.725,1.39
		C 123.026,73.070, 143.835,84.151, 143.141,59.867z M 194.56,57.088c-2.743-10.459-7.607-13.897-22.235-13.897c-14.592,0-23.625,1.39-17.371,20.846
		c0,0, 13.861-3.474, 26.405,1.39C 181.358,65.39, 197.339,67.511, 194.56,57.088z M 141.751,81.371c-9.033,10.423-2.779,32.695-2.779,32.695
		c-20.151,31.232, 2.121,46.519, 2.121,46.519c 39.607,6.949, 38.912-11.118, 69.449-17.371s 18.103-12.507, 18.103-12.507
		c-21.577-11.118-52.151-8.302-62.574-5.595c-10.386,2.779-22.235,2.121-9.728-5.522s 42.386-6.29, 42.386-6.29
		c 14.629,5.595, 13.239-6.912, 13.239-6.912c-9.070-2.779-9.070-16.713-9.070-16.713C 191.781,65.39, 141.751,81.371, 141.751,81.371z
		 M 606.683,65.573c-11.447-19.785-28.709-34.377-44.837-34.889c-16.165-0.549, 5.742,9.874-10.971,20.334c0,0-7.278,6.729-7.278-2.633
		c0,0, 8.85-9.399-1.061-16.165c-9.874-6.766-16.165-17.225-68.791-17.737c0,0-22.418,0.512-57.856,39.058c0,0-9.362,16.713-15.104,20.334
		c0,0-5.193-1.061-2.048-7.863c0,0, 4.681-12.507-3.145-14.043c-7.79-1.573-44.837-3.657-54.711-27.648c0,0-3.109-8.85, 13.568,1.573
		c 16.677,10.459, 19.822,16.713, 40.082,16.201c 20.334-0.549, 21.358-9.399, 36.498-20.297c 15.104-10.971, 34.889-19.858, 5.705-27.136
		c-29.147-7.278-47.397,3.109-76.581-11.995c-29.184-15.141-38.546-9.399-41.691-5.23c-3.109,4.206-1.061,12.544, 13.019,13.568
		c 14.043,1.024, 40.667,5.193, 41.216,14.629c 0.512,9.326-2.633,16.713-5.742,13.568c-3.145-3.145,0-15.653-10.971-15.104
		c-10.971,0.512-37.010,1.573-49.518-6.29c-12.507-7.79-29.696-10.971-50.030,2.633c-20.297,13.568-35.986-22.418-51.602,43.739
		c0,0,0,24.027, 12.507,33.39c0,0, 2.304,11.264-1.17,16.311c0,0, 4.864,23.625, 29.184,32.695c0,0, 9.033,25.015, 50.030,14.555
		c0,0, 18.761-0.695, 22.235,21.541c0,0, 7.643,13.934, 34.706,14.629c0,0, 9.765,1.353, 18.103,10.423c0,0, 13.861,1.39, 22.235-3.511
		c 8.338-4.901, 10.386,9.691, 14.592,13.897c0,0, 7.131,16.494, 26.441,2.926c 19.237-13.531, 20.882-38.583, 31.817-46.921
		c 10.898-8.265, 7.79,3.694, 3.621,9.947c-4.133,6.217-15.104,31.781-17.152,36.974c-2.121,5.193-2.121,27.136, 17.737,27.136
		c0,0, 10.386,6.766, 30.757-6.766c 20.297-13.568, 41.143-19.31, 50.542-17.774c0,0, 9.399,4.169-5.193,6.29
		c-14.592,2.085-33.353,18.249-38.034,21.358c-4.754,3.109-1.573,15.616, 6.217,18.798c 7.863,3.109, 21.394,39.607, 39.131,42.167
		c0,0, 8.302,1.061, 12.983,4.169c0,0, 2.085,5.742-5.193,4.681c0,0-5.193,14.117-4.681,27.136c 0.549,13.019-15.689,45.861-28.197,45.861
		c0,0-4.096-2.633, 1.061-9.399c 5.193-6.766, 20.846-30.208, 14.629-59.941c0,0-1.061-6.766-9.874-9.362c0,0-7.351-27.648-29.184-31.817
		c-21.906-4.169-7.314-21.358-21.906-23.991c-14.629-2.597-21.358,8.338-35.986-9.874c0,0-9.911-22.93-19.822-8.887
		c-9.911,14.080, 8.302,40.667, 14.043,50.542s 13.568,33.353, 40.155,38.034c0,0, 7.278-3.109, 11.959,13.056c 4.754,16.128, 27.136,10.898, 29.769,4.681
		c 2.56-6.217, 7.79-17.737, 9.362-4.681c0,0-1.024,17.701-14.629,20.846c-13.568,3.109-18.213,23.991-14.043,35.986
		c 4.169,11.959, 17.189,13.531, 43.264,5.742c0,0, 13.019-11.995, 22.418-11.995c 9.362,0, 2.121,7.278-2.633,9.399
		c-4.681,2.048-15.287,13.97-37.522,20.297c-10.971,3.145, 4.754,24.027, 21.358,11.995c0,0, 23.991-12.507, 44.837-6.802
		c0,0, 24.503,4.169, 31.269-14.592c0,0-1.573-2.121-10.971-2.121c-9.362,0-10.935-5.742-16.128-5.23c-5.193,0.549-1.573,5.742-20.882,13.568
		c-19.273,7.863-8.302-4.169-3.109-8.302c 5.157-4.169, 22.894-10.386, 21.358-27.648c-1.573-17.152-21.358-30.757-21.358-63.561
		c0-32.878, 4.718-59.429, 11.447-59.429s 1.024,5.193,0,19.822c-1.061,14.629-4.681,52.663, 7.278,56.795c 11.995,4.169, 23.954,4.681, 19.273,11.995
		c0,0-10.971,2.085-16.713,0c0,0-4.718,1.573, 7.278,14.043c 12.032,12.507, 0.549,27.099, 14.629,34.377c 14.043,7.314, 29.184-1.573, 28.672-7.79
		c-0.549-6.29-13.531-2.633-16.713-16.713c-3.109-14.043-13.531-35.986, 5.742-66.194c0,0, 3.694-34.414, 1.061-40.631
		c0,0, 5.778-7.278, 10.935,19.822c 5.23,27.099-9.362,37.998-12.507,51.602c-3.109,13.568, 3.145,36.462, 11.447,36.462s 15.141,6.839, 33.317-24.466
		c 18.249-31.269, 21.394-32.841, 20.882-58.368c-0.549-25.527, 1.573-34.377, 8.887-40.667c 3.657-3.109-3.694-19.273-11.483-11.995
		c0,0-22.894,13.568-33.865,4.681c0,0-5.742,4.206, 1.573,13.056c0,0, 6.802,68.279-9.326,66.743c-16.165-1.609, 8.85-2.121, 0.512-51.090
		c-8.302-48.969-35.438-63.561-46.921-63.013c-11.41,0.512-13.568-2.121-3.694,21.906c 9.947,23.954, 20.224,72.229, 7.863,70.29
		c-6.766-1.061-5.193-4.681-5.193-15.616s-2.633-50.030-20.846-65.17C 570.697,185.49, 576.439,206.811, 569.637,214.638
		c-6.729,7.863-15.616,33.353-46.848,30.757c0,0-3.182-8.302, 6.766-8.85c 9.874-0.549, 33.317-15.104, 32.805-32.293
		c-0.512-17.189-1.573-16.165-14.555-24.466c-13.056-8.338-27.136-21.906-32.293-41.179c-5.193-19.31-38.583-30.208-69.339-26.587
		c-30.793,3.694-16.165,21.87-17.189,34.377c-0.987,12.507-2.633,28.745-11.959,20.882c0,0, 0.512-3.109, 2.633-13.568
		c 2.085-10.386-7.314-5.193-7.826-16.677c-0.512-11.447-4.169-24.466-22.967-12.032c-18.761,12.507-6.217,9.399-4.681,31.781
		c 1.573,22.455-18.761,29.769-14.592,19.31c 4.169-10.386, 7.278-11.447, 2.085-27.648c-5.23-16.128, 5.193-21.358-5.742-32.805
		c-10.971-11.483-32.878-22.967-50.030-28.16c-17.189-5.193-14.592-21.358-31.305-22.93c-16.677-1.573-8.302,19.273-22.894,20.334
		c0,0-8.887,1.024-3.694-7.863c 5.193-8.85, 19.858-14.592, 10.971-25.015c0,0-10.971-10.971-32.805-8.85c0,0-6.802-9.399, 14.592-6.29
		c 21.394,3.145, 32.878,11.483, 51.602,31.305c0,0, 16.677,10.386, 40.119,16.713c 23.442,6.217, 27.136,18.725, 45.349,20.846
		c 18.213,2.085, 30.208,4.169, 51.602-5.193c0,0, 16.713-3.109, 33.865-2.121c0,0, 6.29-2.633, 6.29-15.067c0-12.507, 22.382-20.334, 28.672-25.088
		c 6.254-4.681-0.549-30.683, 4.133-32.805c 4.754-2.121, 8.923-2.633, 8.923,14.043s 5.705,21.358, 21.321,23.954
		c 15.653,2.633, 42.789,11.483, 58.368,7.351c0,0, 9.874,6.766-7.863,10.386c-17.701,3.694-35.401-7.863-50.542-9.399
		c-15.104-1.573-44.288-13.568-48.969,20.334c-4.754,33.865, 46.848,16.677, 63.561,27.611c0,0, 6.766,6.254-4.681,6.802
		c-11.447,0.512-26.587,0-30.208-4.169c0,0,0,2.56, 8.302,16.128c 8.375,13.568-1.573,18.213, 13.568,26.587
		c 15.104,8.302, 29.733,17.189, 39.058,18.286c 9.399,1.024, 31.269-7.314, 31.781-24.503C 615.497,141.678, 618.094,85.358, 606.683,65.573z
		 M 665.015,92.489c-12.507,6.949-12.507,26.441-12.507,42.423c0,15.909-9.691,9.033-10.386-2.779c-0.731-11.813-2.779-32.695, 2.743-36.827
		c 5.522-4.169, 4.133-5.559-2.743-13.897C 635.173,73.070, 629.577,64.695, 620.581,67.511c0,0, 9.070,6.254, 4.901,77.129
		c0,0, 3.511,21.504, 22.272,21.504s 23.625-2.706, 22.235-25.71c-1.39-22.894, 2.121-34.048, 6.254-40.997
		C 680.338,92.489, 677.522,85.577, 665.015,92.489z M 694.894,95.963c0,0-3.511-15.287-11.813,13.934c0,0-8.265,56.247, 3.474,60.416
		c0,0, 10.459,9.691, 12.507,15.982c 2.121,6.254-1.353,5.522-9.691-1.39c-8.302-6.985-9.033-18.798-25.71-4.901
		c0,0-15.945,6.29-25.71,0.731c0,0-5.559-9.070-11.813-9.070c0,0-8.302,9.728, 6.949,16.677c 15.287,6.985, 18.066,8.338, 22.93,20.151
		s 44.507,1.426, 50.030-15.945c 5.559-17.371, 15.982-36.827, 6.985-56.283C 703.963,116.809, 694.235,119.589, 694.894,95.963z M 722.030,86.894
		c0,0-22.967-7.643-9.033,21.541c 13.861,29.147, 17.335,4.864, 14.555,67.438c0,0-4.133,20.114-9.033,24.32
		c-4.864,4.133-0.695,15.323, 5.559,15.945c 6.254,0.695-1.39,23.662-11.081,29.879c0,0-5.595,43.813-2.121,45.934c0,0, 29.147-25.746, 37.522-127.854
		C 748.434,164.096, 751.909,95.305, 722.030,86.894zM 466.322,378.112c-12.544-26.405-22.967-7.643-36.827-7.643c-13.934,0-10.423-9.033-6.985-8.338
		c 3.511,0.695, 11.118-0.695, 11.118-0.695C 436.736,362.021, 445.44,357.266, 445.44,357.266c 8.265-1.39, 11.081-6.985, 16.677-2.779
		c 5.595,4.206, 11.813,4.864, 11.118,18.103C 472.539,385.755, 466.322,378.112, 466.322,378.112z" horiz-adv-x="768"  />
<glyph unicode="&#xe029;" d="M 346.298,480L 96.14,480 l0-512 l 250.159,0 c 38.982,0, 70.633,31.628, 70.633,70.656
			L 416.908,409.391 C 416.908,448.396, 385.28,480, 346.298,480z M 330.1,140.148l-72.122,77.964l-73.565-82.385L 184.436,447.651 l 145.664,0 L 330.1,140.148 z M 2.001,409.391L 2.001,38.633 
			c0-39.005, 31.604-70.656, 70.609-70.656l 4.422,0 L 77.033,480 L 72.611,480 C 33.606,480, 2.001,448.396, 2.001,409.391z" horiz-adv-x="418.909"  />
<glyph unicode="&#xe02a;" d="M 214.272,322.517c0-12.139, 3.499-21.781, 10.453-28.949
			c 6.933-7.189, 16.277-10.752, 27.883-10.752c 12.032,0, 21.547,3.456, 28.416,10.453c 6.869,6.933, 10.304,16.512, 10.304,28.736L 291.328,395.755 
			c0,10.88-3.499,19.776-10.496,26.688c-7.040,6.933-16.043,10.368-27.029,10.368c-12.075,0-21.675-3.264-28.821-9.792
			c-7.168-6.571-10.731-15.381-10.731-26.453L 214.251,322.517 z M 241.6,397.632c0,3.115, 1.003,5.653, 3.029,7.552s 4.672,2.88, 7.893,2.88
			c 3.52,0, 6.379-0.96, 8.533-2.88s 3.221-4.437, 3.221-7.552l0-77.781 c0-3.84-1.067-6.848-3.136-9.024c-2.133-2.197-4.971-3.285-8.597-3.285
			c-3.477,0-6.208,1.067-8.085,3.2c-1.899,2.176-2.816,5.184-2.816,9.109L 241.643,397.632 z M 471.915,199.467c0,34.517-28.309,62.464-63.232,62.464
			c-49.792,2.091-100.736,3.029-152.683,2.923c-51.989,0.085-102.933-0.832-152.725-2.923c-34.88,0-63.189-27.968-63.189-62.464
			c-2.091-27.285-2.987-54.635-2.923-81.941c-0.064-27.328, 0.832-54.656, 2.923-81.963c0-34.475, 28.309-62.485, 63.189-62.485
			c 49.792-2.091, 100.736-2.987, 152.725-2.923c 51.968-0.064, 102.891,0.832, 152.683,2.923c 34.923,0, 63.232,28.011, 63.232,62.485
			c 2.091,27.307, 2.987,54.635, 2.923,81.963C 474.901,144.832, 474.005,172.16, 471.915,199.467z M 131.925,22.848L 102.016,22.848 l0,165.504 l-30.933,0 l0,28.096 l 91.776,0 
			l0-28.096 l-30.933,0 L 131.925,22.848 z M 238.272,22.848L 211.712,22.848 L 211.712,38.613 c-4.885-5.781-9.984-10.219-15.275-13.248c-5.269-3.051-10.411-4.544-15.403-4.544
			c-6.144,0-10.795,2.133-13.909,6.379c-3.093,4.245-4.651,10.624-4.651,19.115l0,119.36 l 26.56,0 l0-109.461 c0-3.392, 0.555-5.845, 1.664-7.381
			c 1.088-1.493, 2.923-2.261, 5.419-2.261c 1.963,0, 4.416,1.024, 7.403,3.008c 2.987,2.027, 5.717,4.587, 8.192,7.701l0,108.395 l 26.56,0 L 238.272,22.848 z
			 M 340.501,52.459c0-10.176-2.091-17.941-6.229-23.317c-4.181-5.397-10.197-8.107-18.069-8.107c-5.163,0-9.792,1.067-13.867,3.136
			c-4.075,2.112-7.829,5.291-11.328,9.664l0-11.008 l-26.816,0 l0,193.6 l 26.816,0 l0-62.336 c 3.563,4.352, 7.381,7.68, 11.392,9.963
			c 4.011,2.24, 8.107,3.371, 12.224,3.371c 8.405,0, 14.784-3.029, 19.243-9.152c 4.395-6.080, 6.635-14.955, 6.635-26.624L 340.501,52.459 z
			 M 438.656,90.923l-50.773,0 l0-26.944 c0-7.531, 0.853-12.736, 2.624-15.637c 1.707-2.88, 4.715-4.331, 8.939-4.331c 4.437,0, 7.488,1.237, 9.237,3.669
			c 1.771,2.453, 2.645,7.893, 2.645,16.32l0,9.941 l 27.328,0 l0-10.752 c0-14.656-3.349-25.664-9.984-33.067c-6.677-7.424-16.597-11.115-29.803-11.115
			c-11.883,0-21.248,3.947-28.075,11.776s-10.24,18.667-10.24,32.405l0,64.128 c0,12.373, 3.755,22.485, 11.243,30.293
			c 7.509,7.787, 17.195,11.691, 29.077,11.691c 12.139,0, 21.483-3.605, 28.011-10.816c 6.528-7.253, 9.792-17.6, 9.792-31.168L 438.677,90.923 z M 332.437,284.331
			c 4.971,0, 10.133,1.536, 15.403,4.544c 5.312,3.051, 10.389,7.467, 15.275,13.269l0-15.765 l 26.56,0 L 389.675,429.227 l-26.56,0 l0-108.416 
			c-2.475-3.115-5.205-5.696-8.192-7.68c-3.008-2.005-5.461-3.029-7.424-3.029c-2.475,0-4.267,0.768-5.397,2.283
			c-1.109,1.493-1.664,3.968-1.664,7.339L 340.437,429.227 l-26.56,0 l0-119.381 c0-8.491, 1.557-14.891, 4.693-19.136C 321.643,286.464, 326.293,284.331, 332.437,284.331z
			 M 399.723,144.277c-4.224,0-7.275-1.301-9.109-3.883c-1.856-2.603-2.752-6.891-2.752-12.864l0-14.464 l 23.445,0 l0,14.464 
			c0,5.952-0.896,10.24-2.773,12.864C 406.72,142.976, 403.776,144.277, 399.723,144.277z M 302.080,144.768c-1.92,0-3.755-0.448-5.632-1.365
			c-1.835-0.939-3.648-2.368-5.461-4.331l0-89.024 c 2.176-2.325, 4.245-4.011, 6.293-5.013c 2.027-1.024, 4.139-1.515, 6.421-1.515
			c 3.243,0, 5.632,0.981, 7.168,2.987c 1.515,2.005, 2.283,5.312, 2.283,9.835l0,73.771 c0,4.821-0.939,8.448-2.837,10.987
			C 308.437,143.552, 305.685,144.768, 302.080,144.768z M 150.891,286.4l 29.931,0 L 180.821,366.72 L 215.595,480L 185.237,480 L 166.741,402.624L 164.864,402.624 L 145.472,480L 115.328,480 l 35.563-116.864
			L 150.891,286.4 z"  />
<glyph unicode="&#xe02b;" d="M 737.713,75.087l 0.315-73.846l 34.107-2.993l 36.706-2.718l 10.752,72.35
			l-38.754,1.812L 737.713,75.087z M 839.404,482.993C 764.534,490.91, 767.212,489.058, 749.529,492.564l 3.308-51.909c 0.512-26.388, 6.302-273.487-0.354-305.703
			l 63.646-6.183c 5.12,16.463, 53.524,235.993, 70.223,285.302l 19.495,61.558C 890.841,476.219, 884.933,478.228, 839.404,482.993z M 341.268,485.356
			C 152.812,485.356,0,366.73,0,220.416c0-146.314, 152.812-264.98, 341.268-264.98c 188.534,0, 341.307,118.666, 341.307,264.98
			C 682.614,366.73, 529.802,485.356, 341.268,485.356z M 549.612,302.139c-7.719-0.748-39.818-7.916-50.609-10.279
			c-11.5-3.072-117.012-84.559-123.983-104.566c-1.575-6.971-2.363-17.605-2.363-27.609l-0.788-16.187c0-11.54, 3.23-30.169, 4.726-40.172
			c 6.932-1.536, 57.147-0.158, 66.402-1.694l-1.182-20.677c-9.019,0.67-72.743,0.512-109.174,0.512c-18.432,0-77.863-2.048-96.177-1.497
			l 3.505,19.692c 9.964,0.748, 51.436-1.812, 60.534,7.798c 4.529,4.766, 3.111,9.925, 3.111,37.612L 303.616,158.11 c0,6.183,0,17.723-1.536,28.514
			C 298.338,198.203, 205.43,314.23, 181.524,332.702C 174.592,335.025, 131.151,339.318, 120.359,341.681L 119.808,359.404C 125.204,362.122, 173.529,358.735, 220.396,360.468
			c 30.878,1.142, 101.1,0, 109.804-1.024L 327.956,343.847c-9.255-2.363-53.799-3.19-65.3-6.262c 30.011-44.662, 77.509-102.164, 92.908-124.495
			c 8.468,12.288, 82.944,63.527, 85.228,81.25c-11.5,2.324-49.782,7.798-55.966,7.798L 381.125,322.304c 10.516,1.654, 65.615,0, 93.026,0
			c 23.67,0, 74.24,0, 88.576-1.221L 549.612,302.139z" horiz-adv-x="905.846"  />
<glyph unicode="&#xe02c;" d="M 256,480C 114.615,480,0,365.385,0,224S 114.615-32, 256-32
			c 141.41,0, 256,114.615, 256,256S 397.41,480, 256,480z M 256-2.987c-125.367,0-226.987,101.644-226.987,226.987
			c0,125.367, 101.62,226.987, 226.987,226.987c 125.342,0, 226.987-101.62, 226.987-226.987C 482.987,98.658, 381.342-2.987, 256-2.987z M 164.45,327.302
			c0-4.047-3.267-7.314-7.314-7.314L 135.363,319.963 l 70.12-213.163l 45.397,125.269L 220.867,319.939L 200.314,319.939 c-4.462,0-8.046,3.608-8.046,8.046
			c0,4.486, 3.608,8.070, 8.046,8.070l 106.203,0 c 4.486,0, 8.046-3.584, 8.046-8.070c0-4.437-3.584-8.046-8.046-8.046l-21.918,0 l 73.192-211.7
			c0,0, 12.459,36.645, 26.38,82.042c 13.897,45.422, 12.459,60.782-0.756,84.968c-13.19,24.162-25.6,44.666-27.819,59.319
			c-5.681,30.403, 17.798,38.4, 33.621,40.424c-35.523,31.354-82.115,50.395-133.193,50.395c-70.388,0-132.218-36.133-168.229-90.843l 69.339,0 
			C 161.158,334.592, 164.45,331.325, 164.45,327.302z M 68.632,297.996c-9.045-22.918-14.068-47.86-14.068-73.996c0-80.384, 47.080-149.699, 115.127-182.028
			L 78.019,297.996L 68.632,297.996 z M 199.436,30.683c 17.944-5.242, 36.913-8.119, 56.564-8.119c 25.088,0, 49.054,4.608, 71.168,13.019l-67.511,172.3
			L 199.436,30.683z M 439.686,306.627c 1.707-26.185-9.362-48.908-9.362-48.908l-75.898-209.408c 61.464,34.499, 102.985,100.23, 102.985,175.714
			C 457.411,253.452, 451.072,281.393, 439.686,306.627z"  />
<glyph unicode="&#xe02d;" d="M 494.026,484.042c-44.706-4.716-108.248-14.12-157.642-138.779
			c 35.301,11.749, 98.816,18.782, 82.351-44.76c-16.492-51.739-108.813-211.106-128.216-108.787c-11.776,72.947-43.52,207.603-43.52,207.603
			S 239.966,493.474, 169.364,472.266C 127.030,451.112,0,345.263,0,345.263l 25.896-37.672c0,0, 49.395,51.766, 68.231,16.492
			C 112.936,288.781, 143.522,234.698, 188.2,37.039c 8.003-36.514, 29.292-75.938, 80.007-72.92c 59.392,3.53, 302.080,165.807, 324.662,407.013
			C 592.842,399.347, 590.228,478.114, 494.026,484.042z" horiz-adv-x="592.842"  />
<glyph unicode="&#xe02e;" d="M 229.632,214.528c-19.354,0-35.072-15.718-35.072-35.123
			s 15.667-35.072, 35.072-35.072c 19.405,0, 35.072,15.667, 35.072,35.072S 249.037,214.528, 229.632,214.528z M 129.28,387.226
			c-21.043,21.094-55.296,21.094-76.339,0L 15.718,350.054c-20.992-21.094-20.992-55.245,0-76.288l 22.17-22.118l 113.51,113.408L 129.28,387.226z
			 M 891.29,309.402l0-351.488 l 30.31,0 l0,351.488 L 891.29,309.402 z M 766.669,254.106l-85.76,0 L 680.909,313.6 L 486.502,313.6 l 69.837,69.888l 161.946,0 c 29.85,0, 54.016,24.115, 54.016,53.914
			L 772.301,440.218 C 772.301,469.965, 748.032,494.131, 718.285,494.131l-226.867,0 C 461.568,494.131, 437.402,469.965, 437.402,440.218l0-2.816 c0-29.798, 24.166-53.914, 53.965-53.914l 17.92,0 
			L 439.552,313.6L 202.906,313.6 L 159.949,356.557L 46.438,243.098l 58.931-58.982l0-176.333 c0-29.798, 24.166-53.965, 53.965-53.965l 521.574,0 L 680.909,13.363 l 85.76,0 l 77.466-55.398
			l 30.413,0 l0,351.488 l-30.413,0 L 766.669,254.106z M 229.632,113.101c-36.608,0-66.253,29.747-66.253,66.253c0,36.659, 29.696,66.304, 66.253,66.304
			c 36.659,0, 66.253-29.696, 66.253-66.304C 295.936,142.797, 266.291,113.101, 229.632,113.101z" horiz-adv-x="921.6"  />
<glyph unicode="&#xe02f;" d="M 192.981,340.288c0,0-3.179-2.219, 1.365-10.667l 71.808-35.392l 32.853,43.179
			c0,0-73.984,30.421-77.013,31.019c0,0-26.283,11.072-29.269,3.051s 27.285-32.917, 27.285-32.917S 200.043,343.659, 192.981,340.288z M 412.416,216.576
			c0,0-59.627,0.747-98.56-83.157c0,0-14.997-25.941, 8.704-52.715c 2.411,1.237, 85.675,27.861, 113.6,113.643
			C 436.16,194.347, 428.245,215.936, 412.416,216.576z M 512.555,325.205L 465.067,326.613c0,0-37.461,69.291-78.464,63.083
			c-36.48-1.237-113.131-109.504-117.995-115.008L 180.928,320c0,0-28.416,22.805-49.28,22.037C 134.080,340.8, 112.704,338.603, 156.693,314.24
			c0,0, 9.131-6.699, 3.648-6.059c0,0-22.464,1.899-30.4,1.899c-7.893,0-0.064-16, 23.168-21.184c0,0, 4.288-13.867, 0.043-12.651
			C 148.928,277.483, 133.611,278.4, 129.344,277.205c0,0-6.677-4.288, 11.563-18.261c 18.219-14.016, 65.451-41.109, 65.451-41.109s 5.461-2.453, 1.813-5.504
			c0,0-69.12-64.427-138.453-63.189c0,0-33.685,3.712-64.085,17.088c0,0-10.347-5.269-3.051-11.968c0,0, 113.941-100.928, 238.016-100.928
			c 25.173,0, 48.555,10.901, 70.037,18.624c-19.179,19.029-15.701,40.469-15.701,40.469s 8.469,94.784, 108.971,116.48
			c 46.464,8.235, 32.469-35.307, 39.381-21.184c 10.155,24.341, 17.451,50.603, 21.76,77.931c0,0, 14.037,13.184, 38.357,26.581
			C 503.424,312.235, 516.203,323.371, 512.555,325.205z M 417.963,293.44c-9.621,0-18.496,10.88-18.496,24.32c0,13.397, 8.875,24.277, 18.496,24.277
			c 9.643,0, 15.424-10.88, 15.424-24.277C 433.365,304.32, 427.605,293.44, 417.963,293.44z"  />
<glyph unicode="&#xe030;" d="M 96.256,105.12c-39.072,0-70.848-31.616-70.848-70.528
			c0-39.008, 31.776-70.592, 70.848-70.592c 39.264,0, 70.944,31.616, 70.944,70.592C 167.2,73.536, 135.52,105.12, 96.256,105.12z M 477.76,152.704L 477.76,461.728 
			C 477.76,474.912, 467.040,485.504, 453.76,485.504L 23.904,485.504 C 10.72,485.504,0,474.912,0,461.728l0-309.056 c0-13.12, 10.72-23.776, 23.904-23.776l 429.888,0 
			C 467.040,128.928, 477.76,139.584, 477.76,152.704z M 192.608,56.832l 285.152,0 c0,0, 23.808,17.088, 23.808,48.288L 214.976,105.12 
			C 214.976,105.12, 192.608,76.16, 192.608,56.832z M 719.52,249.28l-50.784,93.6c0,0-11.968,47.584-47.776,47.584c-13.472-1.504-70.176,0-70.176,0
			s-49.216,2.944-49.216-44.608l 1.472-167.904c0,0, 1.536-48.288, 46.304-48.288l 73.152,0 c0,0, 70.176-5.184, 70.176-69.088c0,0, 1.504-26.752, 25.44-26.752
			c0,0, 21.376,0, 21.376,22.24L 739.456,204.704 C 739.392,204.704, 734.496,228.448, 719.52,249.28z M 597.856,104.64c-40,0-72.32-30.272-72.32-70.080
			c0-39.84, 32.288-72.128, 72.32-72.128c 40,0, 70.368,32.256, 70.368,72.128C 668.224,74.336, 637.856,104.64, 597.856,104.64z" horiz-adv-x="736"  />
<glyph unicode="&#xe031;" d="M 567.751,481.707L 225.223,139.179L 86.414,277.931L0,191.516L 225.223-33.735L 654.222,395.292 		z" horiz-adv-x="654.222"  />
<glyph unicode="&#xe032;" d="M 25.301,298.048c0,0, 101.931,0, 103.040,36.16
			c 1.109,36.16-9.856,61.376, 31.787,61.376l 95.531,0 c 1.963,0, 2.027,0, 2.027,0l 95.552,0 c 41.643,0, 30.677-25.237, 31.787-61.376
			c 1.109-36.16, 103.040-36.16, 103.040-36.16c 41.621,0, 20.864,64.661, 14.272,90.965c-34.005,94.272-175.403,90.987-175.403,90.987L 186.411,480 
			c0,0-141.397,3.285-175.381-90.987C 4.437,362.709-16.363,298.048, 25.301,298.048z M 348.16,295.659l-6.592,0 L 341.568,329.813 c0,13.333-10.795,24.085-24.085,24.085
			c-13.355,0-24.149-10.773-24.149-24.085l0-34.155 L 219.947,295.659 L 219.947,329.813 c0,13.333-10.795,24.085-24.128,24.085c-13.312,0-24.107-10.773-24.107-24.085l0-34.155 L 165.141,295.659 
			c-80.149-90.005-80.064-92.437-114.176-126.549c-28.715-28.693-45.355-46.677-44.864-93.291c 0.597-54.421, 51.435-55.595, 51.435-55.595l 7.275,0 l0-26.944 
			c0-13.312, 10.795-24.107, 24.128-24.107c 13.312,0, 24.107,10.795, 24.107,24.107l0,26.944 l 287.211,0 l0-26.944 c0-13.312, 10.795-24.107, 24.107-24.107
			c 13.333,0, 24.128,10.795, 24.128,24.107l0,26.944 l 7.253,0 c0,0, 50.88,1.195, 51.435,55.595c 0.512,46.635-16.149,64.597-44.864,93.291
			C 428.203,203.221, 428.309,205.675, 348.16,295.659z M 258.539,72.917c-48.555,0-87.893,39.381-87.893,87.936c0,48.512, 39.339,87.915, 87.893,87.915
			s 87.915-39.381, 87.915-87.915C 346.453,112.299, 307.115,72.917, 258.539,72.917z M 258.539,203.008c-23.296,0-42.155-18.901-42.155-42.155
			c0-23.296, 18.837-42.197, 42.155-42.197c 23.296,0, 42.176,18.901, 42.176,42.197C 300.715,184.107, 281.835,203.008, 258.539,203.008z"  />
<glyph unicode="&#xe033;" d="M 170.618,180.968c0,0, 1.609,17.847-17.554,19.968
			c-23.43,2.804-85.699,1.853-85.699,74.947c0,0-0.902,67.486, 60.416,67.486l 147.115,0 c0,0, 66.804-0.951, 66.804-71.217l0-84.334 
			c0,0, 1.609-32.402, 27.843-32.402c 26.258,0, 30.696,34.28, 30.696,34.28l-0.049,241.201C 360.375,457.838, 308.785,479.269, 257.048,479.269
			C 119.418,479.269,0,363.41,0,225.755c0-21.797, 10.606-49.371, 15.896-69.51l 137.167,0 C 153.039,156.294, 170.618,159.439, 170.618,180.968z M 461.166,373.285l0-181.76 
			c0,0-2.633-86.967-91.648-86.967c-89.015,0-96.817,81.822-96.817,81.822L 272.701,267.886 c0,0, 8.728,24.113-24.040,24.113L 141.8,291.998 
			c0,0-21.553-0.219-21.553-16.14c0,0-3.755-14.994, 23.454-18.749C 170.886,253.379, 179.298,252.453, 179.298,252.453s 51.98-11.264, 51.98-64.658
			c0-53.419-35.109-83.919-71.656-83.919c-36.523,0-118.955,0.244-118.955,0.244c 41.74-79.238, 120.613-135.436, 216.43-135.436
			c 137.655,0, 254.952,118.004, 254.952,255.634C 512,271.64, 492.203,331.739, 461.166,373.285z"  />
<glyph unicode="&#xe034;" d="M 491.666,117.041c-8.997,143.384-183.442,175.494-183.442,175.494
			s-40.131,16.36-138.362,10.362c0,0-40.155-0.341-31.11,60.806c0,0, 20.066,40.131, 64.171,36.108c0,0, 33.085-34.109, 53.126-34.109
			c 20.090,0, 42.106,12.044, 42.106,19.042c0,7.022, 4.047,14.043-12.995,15.043c-17.042,1-43.106,16.043-43.106,29.086
			c0,18.383, 22.699,53.15-3.34,51.127c0,0-16.701,1-20.724-13.019C 213.967,452.937, 215.966,433.896, 200.923,430.872
			C 185.88,427.874, 26.795,409.832, 26.795,254.427c0,0-6.022-74.216, 32.11-112.323c0,0, 6.705-15.043-7.363-15.043c-14.043,0-42.13-0.341-42.13-0.341
			s-32.085-2.682, 1-26.697c 33.085-24.088, 47.128-20.090, 47.128-20.090s 21.041,15.043, 29.062,12.044s 76.19-71.168, 106.277-88.235
			c0,0, 6.022-28.721, 26.088-35.742s 20.066,9.021, 18.042,14.019c0,0, 76.19-18.066, 113.298-14.019c0,0, 30.086,8.704,0,13.678
			c-30.086,5.022-121.32,55.174-126.342,92.233c0,0-0.512,2.365-1.146,5.681c-2.974,5.218-3.73,9.826-2.243,12.142
			c-1.122,7.046-2.072,14.263-1.609,17.774c0,0, 36.108-3.145, 34.085,32.914c0,0, 20.431,3.657, 21.406-8.338
			c 0.975-12.044, 0.683-41.155-12.386-41.155c0,0-16.043-12.044-32.11-1.975c-5.047,3.145-8.021,2.828-9.387,0.756
			c 0.756-4.535, 1.536-8.826, 2.243-12.142c 2.706-4.754, 6.997-9.777, 13.19-13.678c 19.042-12.044, 106.277-76.19, 157.403-82.213
			C 393.411-16.299, 500.687-26.319, 491.666,117.041z" horiz-adv-x="487.619"  />
<glyph unicode="&#xe035;" d="M 362.325,149.736c0,36.23-3.633,57.929-3.633,57.929
			s 47.128,65.268, 50.688,155.867c0,14.385, 7.095,116.565-115.858,121.198L 293.522,484.876 C 293.157,484.852, 292.913,484.779, 292.571,484.779c-0.293,0-0.561,0.073-0.902,0.098
			l0-0.146 c-122.978-4.632-115.931-106.813-115.931-121.198c 3.608-90.6, 50.737-155.867, 50.737-155.867s-3.633-21.699-3.633-57.929
			C 27.185,102.656,0,37.388,0,37.388L0-36.876 l 585.143,0 l0,74.289 C 585.143,37.388, 557.958,102.656, 362.325,149.736z" horiz-adv-x="585.143"  />
<glyph unicode="&#xe036;" d="M 369.361,293.492c0,0, 3.212,171.916-143.709,186.508
			c0,0-168.448-4.631-158.022-233.868c0,0-64.675,5.655-64.675-59.974c0-65.676, 91.229-74.38, 91.229-74.38s 35.724-126.86, 110.639-143.825
			c0,0, 59.578-1.676, 60.602,62.929c0,0-12.66,45.847-37.702,64.605C 227.747,95.535, 372.48,140.311, 369.361,293.492z M 32.535,185.879
			c-4.143,42.705, 39.54,33.815, 39.54,33.815c-2.048-16.687, 12.125-76.125, 12.125-76.125C 48.803,146.665, 36.724,143.151, 32.535,185.879z M 205.289,123.741
			c-14.592,27.113-15.034,64.512-15.034,64.512l 16.687,0 c 13.521,0, 60.975,26.042, 66.211,113.548c 5.19,87.552-46.429,81.361-46.429,81.361
			C 163.165,380.044, 163.328,273.687, 163.328,273.687c-14.615-133.492, 54.086-206.941, 54.086-206.941c 27.043-40.634, 11.217-63.209, 11.217-63.209
			c-26.042-22.924-61.859,29.231-61.859,29.231c-71.889,79.197-69.236,219.020-69.236,219.020c-17.711,188.602, 132.329,197.097, 132.329,197.097
			s 110.988-3.305, 108.916-161.676C 338.758,163.444, 205.289,123.741, 205.289,123.741z" horiz-adv-x="372.364"  />
<glyph unicode="&#xe037;" d="M 480.363,215.467l-1.408,3.093c 0.043,1.92, 0.064,3.883, 0.064,5.824
			c0,122.368-99.2,221.611-221.589,221.611c-12.352,0-24.469-1.003-36.267-2.987l-1.344-0.811C 199.019,454.080, 174.955,462.293, 149.291,462.293
			c-78.549,0-148.608-65.088-148.608-143.637c0-32.981, 17.621-63.339, 36.459-87.467c0,0-1.323-3.691-1.323-6.805
			c0-122.389, 99.221-221.589, 221.611-221.589c 10.773,0, 35.499,2.795, 35.499,2.795l 2.133-1.173c0,0, 25.152-19.2, 70.507-18.667
			c 78.549,0, 145.792,63.659, 145.792,142.229C 511.339,160.939, 499.2,191.296, 480.363,215.467z M 355.136,96.107c-25.728-17.557-55.659-26.325-89.835-26.325
			c-32.491,0-59.584,4.032-81.344,12.139c-21.76,8.107-35.627,21.056-51.136,34.581c0,0-18.987,18.155, 5.205,38.037
			c 20.288,17.835, 36.587,0.384, 36.587,0.384c 15.552-16.235, 43.563-30.677, 80.853-33.365c 31.104,0, 49.408,6.997, 57.088,18.496
			c 7.68,11.477, 7.68,22.955,0,34.453s-27.605,22.293-58.667,25.045c-27.968,2.667-53.611,10.091-76.907,22.293
			c-23.296,12.16-40.277,33.109-40.277,62.848c0,26.901, 17.493,51.691, 43.989,67.968c 26.475,16.299, 54.784,26.56, 82.752,26.56
			c 32.469,0, 57.664-8.704, 75.541-15.467C 356.8,356.971, 370.069,339.2, 370.069,339.2s 15.445-15.723, 0.363-36.437
			c-12.693-15.765-31.701-7.851-31.701-7.851c-18.752,13.568-35.136,25.92-60.459,31.253c-33.301,3.712-52.416-5.227-60.16-16.683
			c-7.765-11.499-6.165-29.291, 1.6-37.397c 7.765-8.085, 29.547-15.787, 57.515-19.861c 29.504-2.688, 56.277-11.136, 80.363-25.344
			c 24.107-14.187, 36.117-36.843, 36.117-67.925C 393.685,134.635, 380.864,113.685, 355.136,96.107z"  />
<glyph unicode="&#xe038;" d="M 584.474,13.568c-16.077,28.954-247.296,428.774-261.709,453.222
			c-12.928,21.99-43.75,22.323-56.653,0C 246.426,432.819, 16.41,34.534, 5.018,14.618c-14.182-24.883, 3.866-50.048, 28.237-50.048l 523.187,0 
			C 583.194-35.43, 596.198-7.603, 584.474,13.568z M 319.59,369.229l-7.347-252.109l-35.686,0 L 269.21,369.229L 319.59,369.229 z M 294.4,9.472l-0.512,0 
			c-17.869,0-30.464,14.157-30.464,32.538c0,18.918, 13.133,32.563, 30.976,32.563c 18.918,0, 30.95-13.67, 30.95-32.563
			C 325.35,23.654, 313.318,9.472, 294.4,9.472z" horiz-adv-x="588.8"  />
<glyph unicode="&#xe039;" d="M 80.874,207.015L -0.467,207.015 c-4.452,0-8.036-3.562-8.036-8.036l0-212.124 
			c0-4.43, 3.606-8.058, 8.036-8.058l 81.341,0 c 4.474,0, 8.058,3.629, 8.058,8.058l0,212.124 C 88.932,203.453, 85.326,207.015, 80.874,207.015z
			 M 465.341,170.997c-5.343,6.656-9.35,9.35-10.685,16.006c 10.685,5.387, 21.326,26.713, 21.326,33.414C 474.691,265.761, 431.972,275.111, 431.972,275.111s0,0-128.178,0
			c-9.35,1.358-2.649,26.691, 2.694,36.040C 329.216,351.199, 342.55,387.217, 342.55,405.916c-7.992,92.093-70.79,76.065-73.439,66.716
			c-1.358-93.429-22.684-114.822-46.748-130.783c-24.019-16.028-26.691-34.727-54.673-98.771c-28.049-64.067-58.746-42.696-58.746-42.696s 1.358-20.013, 1.358-208.206
			c 157.473-29.384, 225.547-25.4, 266.93-21.348C 418.616-25.21, 431.972,2.838, 431.972,17.508c0,17.319, 5.298,26.669, 11.999,30.72
			c 29.362,23.997, 20.013,31.989, 12.043,49.397c-7.992,17.341-5.343,22.706, 7.992,34.705C 489.316,144.306, 470.684,164.341, 465.341,170.997z" horiz-adv-x="467.478"  />
<glyph unicode="&#x20;" horiz-adv-x="256" />
</font>
</defs>
</svg>
